AJPW Excite Series 2021 02 23 Day 4 DX-TV

AJPW Excite Series 2021 02 23 Day 4 DX-TV

AJPW Excite Series

 AJPW Excite Series

 

 

 

Download Links with High Speed


 

Dopapk

 

 

Show Links

 

http://shrt10.com/R6odAS

 

[collapse]

 

 

Nitroflare

 

 

Show Links

 

http://shrt10.com/puqKD

 

[collapse]

 

 

Rapidgator

 

 

Show Links

 

http://shrt10.com/FZhMD

 

[collapse]

 

 

Uploaded

 

 

Show Links

 

http://shrt10.com/jdxYvBtD6

 

[collapse]

 

 

Watch online

 

Server 1

 

 

 

 

watch now

 

 

 

 

Server-2

 

 

 

 

watch now

 

 

Uploaded By Site DX-TV.com

 

 

Show Info This Show

 

 

Complete name : 2021.02.23.AJPW.Excite.Series.Day.4.mp4
Format : MPEG-4
Format profile : Base Media
Codec ID : isom
File size : 2.24 GiB
Duration : 2 h 37 min
Overall bit rate : 2 042 kb/s
Writing application : Lavf58.64.100

Video
ID : 1
Format : AVC
Duration : 2 h 37 min
Bit rate : 1 938 kb/s
Width : 1 280 pixels
Height : 720 pixels
Display aspect ratio : 16:9
Frame rate mode : Variable
Frame rate : 29.970 FPS
Color space : YUV
Chroma subsampling : 4:2:0
Bit depth : 8 bits
Scan type : Progressive
Bits/(Pixel*Frame) : 0.070
Stream size : 2.13 GiB
Color range : Full
Color primaries : BT.709
Transfer characteristics : BT.709
Matrix coefficients : BT.709
Codec configuration box : avc

Excite Series

Audio
ID : 2
Format : AAC LC
Codec ID : mp4a-40-2
Duration : 2 h 37 min
Bit rate mode : Constant
Bit rate : 96.0 kb/s
Channel(s) : 2 channels
Channel layout : L R
Sampling rate : 48.0 kHz
Frame rate : 46.875 FPS
Compression mode : Lossy
Stream size : 108 MiB
Default : Yes
Alternate group : 1

AJPW Excite Series

ID : 2
Format : AAC LC
Codec ID : mp4a-40-2
Duration : 2 h 37 min
Bit rate mode : Constant
Bit rate : 96.0 kb/s
Channel(s) : 2 channels
Channel layout : L R
Sampling rate : 48.0 kHz
Frame rate : 46.875 FPS
Compression mode : Lossy
Stream size : 108 MiB
Default : Yes
Alternate group : 1

AJPW Excite Series

ID : 2
Format : AAC LC
Codec ID : mp4a-40-2
Duration : 2 h 37 min
Bit rate mode : Constant
Bit rate : 96.0 kb/s
Channel(s) : 2 channels
Channel layout : L R
Sampling rate : 48.0 kHz
Frame rate : 46.875 FPS
Compression mode : Lossy
Stream size : 108 MiB
Default : Yes
Alternate group : 1

 

ID : 2
Format : AAC LC
Codec ID : mp4a-40-2
Duration : 2 h 37 min
Bit rate mode : Constant
Bit rate : 96.0 kb/s
Channel(s) : 2 channels
Channel layout : L R
Sampling rate : 48.0 kHz
Frame rate : 46.875 FPS
Compression mode : Lossy
Stream size : 108 MiB
Default : Yes
Alternate group : 1

[collapse]

 

 

https://dx-tv.com/