AJPW Dynamite Series Day 2 2021 06 19 Online Free Replay DX-TV

Contents show

AJPW Dynamite Series

AJPW Dynamite Series

 

 

 

Download Links with premium High Speed


Dopapk

 

 

Show Links

 

 

Nitroflare

 

 

Show Links

 

http://shrt10.com/Cjydja8

 

[collapse]

 

 

Rapidgator

 

 

Show Links

 

http://shrt10.com/kEgl6

 

[collapse]

 

 

Uploaded

 

 

Show Links

 

http://shrt10.com/JWXKyGp

 

[collapse]

 

 

Watch online

 

Server 1

 

 

 

 

AJPW Dynamite Series

 

 

 

 

Server-2

 

 

 

 

watch now

 

 

 

|Server-4

 

 

 

 

AJPW Dynamite Series

 

 

Uploaded By Site DX-TV.com

 

 

Show Info This Show

AJPW Dynamite Series

 

Complete name : 2021.06.19.AJPW.Dynamite.Series.Day.2.mp4
Format : MPEG-4
Format profile : Base Media
Codec ID : isom
File size : 1.70 GiB
Duration : 2 h 1 min
Overall bit rate mode : Variable
Overall bit rate : 2 003 kb/s

Video
ID : 1
Format : AVC
Format/Info : Advanced Video
Duration : 2 h 1 min
Duration_FirstFrame : 33 ms
Bit rate : 1 904 kb/s
Width : 1 280 pixels
Height : 720 pixels
Display aspect ratio : 16:9
Frame rate mode : Constant
Frame rate : 30.000 FPS
Color space : YUV
Chroma subsampling : 4:2:0
Bit depth : 8 bits
Scan type : Progressive
Bits/(Pixel*Frame) : 0.069
Stream size : 1.62 GiB (95%)
Codec configuration box : avcC

AJPW Dynamite Series

Audio
ID : 2
Format : AAC LC
Format/Info : Advanced Audio
Codec ID : mp4a-40-2
Duration : 2 h 1 min
Bit rate mode : Variable
Bit rate : 87.7 kb/s
Maximum bit rate : 144 kb/s
Channel(s) : 2 channels
Channel layout : L R
Sampling rate : 44.1 kHz
Frame rate : 43.066 FPS (1024 SPF)
Compression mode : Lossy
Stream size : 76.4 MiB (4%)

AJPW Dynamite Series

 

 

Complete name : 2021.06.19.AJPW.Dynamite.Series.Day.2.mp4
Format : MPEG-4
Format profile : Base Media
Codec ID : isom
File size : 1.70 GiB
Duration : 2 h 1 min
Overall bit rate mode : Variable
Overall bit rate : 2 003 kb/s

Video
ID : 1
Format : AVC
Format/Info : Advanced Video
Duration : 2 h 1 min
Duration_FirstFrame : 33 ms
Bit rate : 1 904 kb/s
Width : 1 280 pixels
Height : 720 pixels
Display aspect ratio : 16:9
Frame rate mode : Constant
Frame rate : 30.000 FPS
Color space : YUV
Chroma subsampling : 4:2:0
Bit depth : 8 bits
Scan type : Progressive
Bits/(Pixel*Frame) : 0.069
Stream size : 1.62 GiB (95%)
Codec configuration box : avcC

AJPW Dynamite Series

Audio
ID : 2
Format : AAC LC
Format/Info : Advanced Audio
Codec ID : mp4a-40-2
Duration : 2 h 1 min
Bit rate mode : Variable
Bit rate : 87.7 kb/s
Maximum bit rate : 144 kb/s
Channel(s) : 2 channels
Channel layout : L R
Sampling rate : 44.1 kHz
Frame rate : 43.066 FPS (1024 SPF)
Compression mode : Lossy
Stream size : 76.4 MiB (4%)

AJPW Dynamite Series

 

 

Complete name : 2021.06.19.AJPW.Dynamite.Series.Day.2.mp4
Format : MPEG-4
Format profile : Base Media
Codec ID : isom
File size : 1.70 GiB
Duration : 2 h 1 min
Overall bit rate mode : Variable
Overall bit rate : 2 003 kb/s

Video
ID : 1
Format : AVC
Format/Info : Advanced Video
Duration : 2 h 1 min
Duration_FirstFrame : 33 ms
Bit rate : 1 904 kb/s
Width : 1 280 pixels
Height : 720 pixels
Display aspect ratio : 16:9
Frame rate mode : Constant
Frame rate : 30.000 FPS
Color space : YUV
Chroma subsampling : 4:2:0
Bit depth : 8 bits
Scan type : Progressive
Bits/(Pixel*Frame) : 0.069
Stream size : 1.62 GiB (95%)
Codec configuration box : avcC

AJPW Dynamite Series

Audio
ID : 2
Format : AAC LC
Format/Info : Advanced Audio
Codec ID : mp4a-40-2
Duration : 2 h 1 min
Bit rate mode : Variable
Bit rate : 87.7 kb/s
Maximum bit rate : 144 kb/s
Channel(s) : 2 channels
Channel layout : L R
Sampling rate : 44.1 kHz
Frame rate : 43.066 FPS (1024 SPF)
Compression mode : Lossy
Stream size : 76.4 MiB (4%)

AJPW Dynamite Series

 

 

Complete name : 2021.06.19.AJPW.Dynamite.Series.Day.2.mp4
Format : MPEG-4
Format profile : Base Media
Codec ID : isom
File size : 1.70 GiB
Duration : 2 h 1 min
Overall bit rate mode : Variable
Overall bit rate : 2 003 kb/s

Video
ID : 1
Format : AVC
Format/Info : Advanced Video
Duration : 2 h 1 min
Duration_FirstFrame : 33 ms
Bit rate : 1 904 kb/s
Width : 1 280 pixels
Height : 720 pixels
Display aspect ratio : 16:9
Frame rate mode : Constant
Frame rate : 30.000 FPS
Color space : YUV
Chroma subsampling : 4:2:0
Bit depth : 8 bits
Scan type : Progressive
Bits/(Pixel*Frame) : 0.069
Stream size : 1.62 GiB (95%)
Codec configuration box : avcC

AJPW Dynamite Series

Audio
ID : 2
Format : AAC LC
Format/Info : Advanced Audio
Codec ID : mp4a-40-2
Duration : 2 h 1 min
Bit rate mode : Variable
Bit rate : 87.7 kb/s
Maximum bit rate : 144 kb/s
Channel(s) : 2 channels
Channel layout : L R
Sampling rate : 44.1 kHz
Frame rate : 43.066 FPS (1024 SPF)
Compression mode : Lossy
Stream size : 76.4 MiB (4%)

AJPW Dynamite Series

 

 

Complete name : 2021.06.19.AJPW.Dynamite.Series.Day.2.mp4
Format : MPEG-4
Format profile : Base Media
Codec ID : isom
File size : 1.70 GiB
Duration : 2 h 1 min
Overall bit rate mode : Variable
Overall bit rate : 2 003 kb/s

Video
ID : 1
Format : AVC
Format/Info : Advanced Video
Duration : 2 h 1 min
Duration_FirstFrame : 33 ms
Bit rate : 1 904 kb/s
Width : 1 280 pixels
Height : 720 pixels
Display aspect ratio : 16:9
Frame rate mode : Constant
Frame rate : 30.000 FPS
Color space : YUV
Chroma subsampling : 4:2:0
Bit depth : 8 bits
Scan type : Progressive
Bits/(Pixel*Frame) : 0.069
Stream size : 1.62 GiB (95%)
Codec configuration box : avcC

AJPW Dynamite Series

Audio
ID : 2
Format : AAC LC
Format/Info : Advanced Audio
Codec ID : mp4a-40-2
Duration : 2 h 1 min
Bit rate mode : Variable
Bit rate : 87.7 kb/s
Maximum bit rate : 144 kb/s
Channel(s) : 2 channels
Channel layout : L R
Sampling rate : 44.1 kHz
Frame rate : 43.066 FPS (1024 SPF)
Compression mode : Lossy
Stream size : 76.4 MiB (4%)

AJPW Dynamite Series

 

 

Complete name : 2021.06.19.AJPW.Dynamite.Series.Day.2.mp4
Format : MPEG-4
Format profile : Base Media
Codec ID : isom
File size : 1.70 GiB
Duration : 2 h 1 min
Overall bit rate mode : Variable
Overall bit rate : 2 003 kb/s

Video
ID : 1
Format : AVC
Format/Info : Advanced Video
Duration : 2 h 1 min
Duration_FirstFrame : 33 ms
Bit rate : 1 904 kb/s
Width : 1 280 pixels
Height : 720 pixels
Display aspect ratio : 16:9
Frame rate mode : Constant
Frame rate : 30.000 FPS
Color space : YUV
Chroma subsampling : 4:2:0
Bit depth : 8 bits
Scan type : Progressive
Bits/(Pixel*Frame) : 0.069
Stream size : 1.62 GiB (95%)
Codec configuration box : avcC

AJPW Dynamite Series

Audio
ID : 2
Format : AAC LC
Format/Info : Advanced Audio
Codec ID : mp4a-40-2
Duration : 2 h 1 min
Bit rate mode : Variable
Bit rate : 87.7 kb/s
Maximum bit rate : 144 kb/s
Channel(s) : 2 channels
Channel layout : L R
Sampling rate : 44.1 kHz
Frame rate : 43.066 FPS (1024 SPF)
Compression mode : Lossy
Stream size : 76.4 MiB (4%)

AJPW Dynamite Series

 

 

Complete name : 2021.06.19.AJPW.Dynamite.Series.Day.2.mp4
Format : MPEG-4
Format profile : Base Media
Codec ID : isom
File size : 1.70 GiB
Duration : 2 h 1 min
Overall bit rate mode : Variable
Overall bit rate : 2 003 kb/s

Video
ID : 1
Format : AVC
Format/Info : Advanced Video
Duration : 2 h 1 min
Duration_FirstFrame : 33 ms
Bit rate : 1 904 kb/s
Width : 1 280 pixels
Height : 720 pixels
Display aspect ratio : 16:9
Frame rate mode : Constant
Frame rate : 30.000 FPS
Color space : YUV
Chroma subsampling : 4:2:0
Bit depth : 8 bits
Scan type : Progressive
Bits/(Pixel*Frame) : 0.069
Stream size : 1.62 GiB (95%)
Codec configuration box : avcC

AJPW Dynamite Series

Audio
ID : 2
Format : AAC LC
Format/Info : Advanced Audio
Codec ID : mp4a-40-2
Duration : 2 h 1 min
Bit rate mode : Variable
Bit rate : 87.7 kb/s
Maximum bit rate : 144 kb/s
Channel(s) : 2 channels
Channel layout : L R
Sampling rate : 44.1 kHz
Frame rate : 43.066 FPS (1024 SPF)
Compression mode : Lossy
Stream size : 76.4 MiB (4%)

AJPW Dynamite Series

 

 

Complete name : 2021.06.19.AJPW.Dynamite.Series.Day.2.mp4
Format : MPEG-4
Format profile : Base Media
Codec ID : isom
File size : 1.70 GiB
Duration : 2 h 1 min
Overall bit rate mode : Variable
Overall bit rate : 2 003 kb/s

Video
ID : 1
Format : AVC
Format/Info : Advanced Video
Duration : 2 h 1 min
Duration_FirstFrame : 33 ms
Bit rate : 1 904 kb/s
Width : 1 280 pixels
Height : 720 pixels
Display aspect ratio : 16:9
Frame rate mode : Constant
Frame rate : 30.000 FPS
Color space : YUV
Chroma subsampling : 4:2:0
Bit depth : 8 bits
Scan type : Progressive
Bits/(Pixel*Frame) : 0.069
Stream size : 1.62 GiB (95%)
Codec configuration box : avcC

AJPW Dynamite Series

Audio
ID : 2
Format : AAC LC
Format/Info : Advanced Audio
Codec ID : mp4a-40-2
Duration : 2 h 1 min
Bit rate mode : Variable
Bit rate : 87.7 kb/s
Maximum bit rate : 144 kb/s
Channel(s) : 2 channels
Channel layout : L R
Sampling rate : 44.1 kHz
Frame rate : 43.066 FPS (1024 SPF)
Compression mode : Lossy
Stream size : 76.4 MiB (4%)

AJPW Dynamite Series

 

 

Complete name : 2021.06.19.AJPW.Dynamite.Series.Day.2.mp4
Format : MPEG-4
Format profile : Base Media
Codec ID : isom
File size : 1.70 GiB
Duration : 2 h 1 min
Overall bit rate mode : Variable
Overall bit rate : 2 003 kb/s

Video
ID : 1
Format : AVC
Format/Info : Advanced Video
Duration : 2 h 1 min
Duration_FirstFrame : 33 ms
Bit rate : 1 904 kb/s
Width : 1 280 pixels
Height : 720 pixels
Display aspect ratio : 16:9
Frame rate mode : Constant
Frame rate : 30.000 FPS
Color space : YUV
Chroma subsampling : 4:2:0
Bit depth : 8 bits
Scan type : Progressive
Bits/(Pixel*Frame) : 0.069
Stream size : 1.62 GiB (95%)
Codec configuration box : avcC

AJPW Dynamite Series

Audio
ID : 2
Format : AAC LC
Format/Info : Advanced Audio
Codec ID : mp4a-40-2
Duration : 2 h 1 min
Bit rate mode : Variable
Bit rate : 87.7 kb/s
Maximum bit rate : 144 kb/s
Channel(s) : 2 channels
Channel layout : L R
Sampling rate : 44.1 kHz
Frame rate : 43.066 FPS (1024 SPF)
Compression mode : Lossy
Stream size : 76.4 MiB (4%)

AJPW Dynamite Series

 

 

Complete name : 2021.06.19.AJPW.Dynamite.Series.Day.2.mp4
Format : MPEG-4
Format profile : Base Media
Codec ID : isom
File size : 1.70 GiB
Duration : 2 h 1 min
Overall bit rate mode : Variable
Overall bit rate : 2 003 kb/s

Video
ID : 1
Format : AVC
Format/Info : Advanced Video
Duration : 2 h 1 min
Duration_FirstFrame : 33 ms
Bit rate : 1 904 kb/s
Width : 1 280 pixels
Height : 720 pixels
Display aspect ratio : 16:9
Frame rate mode : Constant
Frame rate : 30.000 FPS
Color space : YUV
Chroma subsampling : 4:2:0
Bit depth : 8 bits
Scan type : Progressive
Bits/(Pixel*Frame) : 0.069
Stream size : 1.62 GiB (95%)
Codec configuration box : avcC

AJPW Dynamite Series

Audio
ID : 2
Format : AAC LC
Format/Info : Advanced Audio
Codec ID : mp4a-40-2
Duration : 2 h 1 min
Bit rate mode : Variable
Bit rate : 87.7 kb/s
Maximum bit rate : 144 kb/s
Channel(s) : 2 channels
Channel layout : L R
Sampling rate : 44.1 kHz
Frame rate : 43.066 FPS (1024 SPF)
Compression mode : Lossy
Stream size : 76.4 MiB (4%)

AJPW Dynamite Series

 

 

Complete name : 2021.06.19.AJPW.Dynamite.Series.Day.2.mp4
Format : MPEG-4
Format profile : Base Media
Codec ID : isom
File size : 1.70 GiB
Duration : 2 h 1 min
Overall bit rate mode : Variable
Overall bit rate : 2 003 kb/s

Video
ID : 1
Format : AVC
Format/Info : Advanced Video
Duration : 2 h 1 min
Duration_FirstFrame : 33 ms
Bit rate : 1 904 kb/s
Width : 1 280 pixels
Height : 720 pixels
Display aspect ratio : 16:9
Frame rate mode : Constant
Frame rate : 30.000 FPS
Color space : YUV
Chroma subsampling : 4:2:0
Bit depth : 8 bits
Scan type : Progressive
Bits/(Pixel*Frame) : 0.069
Stream size : 1.62 GiB (95%)
Codec configuration box : avcC

AJPW Dynamite Series

Audio
ID : 2
Format : AAC LC
Format/Info : Advanced Audio
Codec ID : mp4a-40-2
Duration : 2 h 1 min
Bit rate mode : Variable
Bit rate : 87.7 kb/s
Maximum bit rate : 144 kb/s
Channel(s) : 2 channels
Channel layout : L R
Sampling rate : 44.1 kHz
Frame rate : 43.066 FPS (1024 SPF)
Compression mode : Lossy
Stream size : 76.4 MiB (4%)

AJPW Dynamite Series

 

 

Complete name : 2021.06.19.AJPW.Dynamite.Series.Day.2.mp4
Format : MPEG-4
Format profile : Base Media
Codec ID : isom
File size : 1.70 GiB
Duration : 2 h 1 min
Overall bit rate mode : Variable
Overall bit rate : 2 003 kb/s

Video
ID : 1
Format : AVC
Format/Info : Advanced Video
Duration : 2 h 1 min
Duration_FirstFrame : 33 ms
Bit rate : 1 904 kb/s
Width : 1 280 pixels
Height : 720 pixels
Display aspect ratio : 16:9
Frame rate mode : Constant
Frame rate : 30.000 FPS
Color space : YUV
Chroma subsampling : 4:2:0
Bit depth : 8 bits
Scan type : Progressive
Bits/(Pixel*Frame) : 0.069
Stream size : 1.62 GiB (95%)
Codec configuration box : avcC

AJPW Dynamite Series

Audio
ID : 2
Format : AAC LC
Format/Info : Advanced Audio
Codec ID : mp4a-40-2
Duration : 2 h 1 min
Bit rate mode : Variable
Bit rate : 87.7 kb/s
Maximum bit rate : 144 kb/s
Channel(s) : 2 channels
Channel layout : L R
Sampling rate : 44.1 kHz
Frame rate : 43.066 FPS (1024 SPF)
Compression mode : Lossy
Stream size : 76.4 MiB (4%)

AJPW Dynamite Series

 

 

Complete name : 2021.06.19.AJPW.Dynamite.Series.Day.2.mp4
Format : MPEG-4
Format profile : Base Media
Codec ID : isom
File size : 1.70 GiB
Duration : 2 h 1 min
Overall bit rate mode : Variable
Overall bit rate : 2 003 kb/s

Video
ID : 1
Format : AVC
Format/Info : Advanced Video
Duration : 2 h 1 min
Duration_FirstFrame : 33 ms
Bit rate : 1 904 kb/s
Width : 1 280 pixels
Height : 720 pixels
Display aspect ratio : 16:9
Frame rate mode : Constant
Frame rate : 30.000 FPS
Color space : YUV
Chroma subsampling : 4:2:0
Bit depth : 8 bits
Scan type : Progressive
Bits/(Pixel*Frame) : 0.069
Stream size : 1.62 GiB (95%)
Codec configuration box : avcC

AJPW Dynamite Series

Audio
ID : 2
Format : AAC LC
Format/Info : Advanced Audio
Codec ID : mp4a-40-2
Duration : 2 h 1 min
Bit rate mode : Variable
Bit rate : 87.7 kb/s
Maximum bit rate : 144 kb/s
Channel(s) : 2 channels
Channel layout : L R
Sampling rate : 44.1 kHz
Frame rate : 43.066 FPS (1024 SPF)
Compression mode : Lossy
Stream size : 76.4 MiB (4%)

AJPW Dynamite Series

 

 

Complete name : 2021.06.19.AJPW.Dynamite.Series.Day.2.mp4
Format : MPEG-4
Format profile : Base Media
Codec ID : isom
File size : 1.70 GiB
Duration : 2 h 1 min
Overall bit rate mode : Variable
Overall bit rate : 2 003 kb/s

Video
ID : 1
Format : AVC
Format/Info : Advanced Video
Duration : 2 h 1 min
Duration_FirstFrame : 33 ms
Bit rate : 1 904 kb/s
Width : 1 280 pixels
Height : 720 pixels
Display aspect ratio : 16:9
Frame rate mode : Constant
Frame rate : 30.000 FPS
Color space : YUV
Chroma subsampling : 4:2:0
Bit depth : 8 bits
Scan type : Progressive
Bits/(Pixel*Frame) : 0.069
Stream size : 1.62 GiB (95%)
Codec configuration box : avcC

AJPW Dynamite Series

Audio
ID : 2
Format : AAC LC
Format/Info : Advanced Audio
Codec ID : mp4a-40-2
Duration : 2 h 1 min
Bit rate mode : Variable
Bit rate : 87.7 kb/s
Maximum bit rate : 144 kb/s
Channel(s) : 2 channels
Channel layout : L R
Sampling rate : 44.1 kHz
Frame rate : 43.066 FPS (1024 SPF)
Compression mode : Lossy
Stream size : 76.4 MiB (4%)

AJPW Dynamite Series

 

 

Complete name : 2021.06.19.AJPW.Dynamite.Series.Day.2.mp4
Format : MPEG-4
Format profile : Base Media
Codec ID : isom
File size : 1.70 GiB
Duration : 2 h 1 min
Overall bit rate mode : Variable
Overall bit rate : 2 003 kb/s

Video
ID : 1
Format : AVC
Format/Info : Advanced Video
Duration : 2 h 1 min
Duration_FirstFrame : 33 ms
Bit rate : 1 904 kb/s
Width : 1 280 pixels
Height : 720 pixels
Display aspect ratio : 16:9
Frame rate mode : Constant
Frame rate : 30.000 FPS
Color space : YUV
Chroma subsampling : 4:2:0
Bit depth : 8 bits
Scan type : Progressive
Bits/(Pixel*Frame) : 0.069
Stream size : 1.62 GiB (95%)
Codec configuration box : avcC

AJPW Dynamite Series

Audio
ID : 2
Format : AAC LC
Format/Info : Advanced Audio
Codec ID : mp4a-40-2
Duration : 2 h 1 min
Bit rate mode : Variable
Bit rate : 87.7 kb/s
Maximum bit rate : 144 kb/s
Channel(s) : 2 channels
Channel layout : L R
Sampling rate : 44.1 kHz
Frame rate : 43.066 FPS (1024 SPF)
Compression mode : Lossy
Stream size : 76.4 MiB (4%)

AJPW Dynamite Series

 

 

Complete name : 2021.06.19.AJPW.Dynamite.Series.Day.2.mp4
Format : MPEG-4
Format profile : Base Media
Codec ID : isom
File size : 1.70 GiB
Duration : 2 h 1 min
Overall bit rate mode : Variable
Overall bit rate : 2 003 kb/s

Video
ID : 1
Format : AVC
Format/Info : Advanced Video
Duration : 2 h 1 min
Duration_FirstFrame : 33 ms
Bit rate : 1 904 kb/s
Width : 1 280 pixels
Height : 720 pixels
Display aspect ratio : 16:9
Frame rate mode : Constant
Frame rate : 30.000 FPS
Color space : YUV
Chroma subsampling : 4:2:0
Bit depth : 8 bits
Scan type : Progressive
Bits/(Pixel*Frame) : 0.069
Stream size : 1.62 GiB (95%)
Codec configuration box : avcC

AJPW Dynamite Series

Audio
ID : 2
Format : AAC LC
Format/Info : Advanced Audio
Codec ID : mp4a-40-2
Duration : 2 h 1 min
Bit rate mode : Variable
Bit rate : 87.7 kb/s
Maximum bit rate : 144 kb/s
Channel(s) : 2 channels
Channel layout : L R
Sampling rate : 44.1 kHz
Frame rate : 43.066 FPS (1024 SPF)
Compression mode : Lossy
Stream size : 76.4 MiB (4%)

AJPW Dynamite Series

 

 

Complete name : 2021.06.19.AJPW.Dynamite.Series.Day.2.mp4
Format : MPEG-4
Format profile : Base Media
Codec ID : isom
File size : 1.70 GiB
Duration : 2 h 1 min
Overall bit rate mode : Variable
Overall bit rate : 2 003 kb/s

Video
ID : 1
Format : AVC
Format/Info : Advanced Video
Duration : 2 h 1 min
Duration_FirstFrame : 33 ms
Bit rate : 1 904 kb/s
Width : 1 280 pixels
Height : 720 pixels
Display aspect ratio : 16:9
Frame rate mode : Constant
Frame rate : 30.000 FPS
Color space : YUV
Chroma subsampling : 4:2:0
Bit depth : 8 bits
Scan type : Progressive
Bits/(Pixel*Frame) : 0.069
Stream size : 1.62 GiB (95%)
Codec configuration box : avcC

AJPW Dynamite Series

Audio
ID : 2
Format : AAC LC
Format/Info : Advanced Audio
Codec ID : mp4a-40-2
Duration : 2 h 1 min
Bit rate mode : Variable
Bit rate : 87.7 kb/s
Maximum bit rate : 144 kb/s
Channel(s) : 2 channels
Channel layout : L R
Sampling rate : 44.1 kHz
Frame rate : 43.066 FPS (1024 SPF)
Compression mode : Lossy
Stream size : 76.4 MiB (4%)

AJPW Dynamite Series

 

 

Complete name : 2021.06.19.AJPW.Dynamite.Series.Day.2.mp4
Format : MPEG-4
Format profile : Base Media
Codec ID : isom
File size : 1.70 GiB
Duration : 2 h 1 min
Overall bit rate mode : Variable
Overall bit rate : 2 003 kb/s

Video
ID : 1
Format : AVC
Format/Info : Advanced Video
Duration : 2 h 1 min
Duration_FirstFrame : 33 ms
Bit rate : 1 904 kb/s
Width : 1 280 pixels
Height : 720 pixels
Display aspect ratio : 16:9
Frame rate mode : Constant
Frame rate : 30.000 FPS
Color space : YUV
Chroma subsampling : 4:2:0
Bit depth : 8 bits
Scan type : Progressive
Bits/(Pixel*Frame) : 0.069
Stream size : 1.62 GiB (95%)
Codec configuration box : avcC

AJPW Dynamite Series

Audio
ID : 2
Format : AAC LC
Format/Info : Advanced Audio
Codec ID : mp4a-40-2
Duration : 2 h 1 min
Bit rate mode : Variable
Bit rate : 87.7 kb/s
Maximum bit rate : 144 kb/s
Channel(s) : 2 channels
Channel layout : L R
Sampling rate : 44.1 kHz
Frame rate : 43.066 FPS (1024 SPF)
Compression mode : Lossy
Stream size : 76.4 MiB (4%)

AJPW Dynamite Series

 

 

Complete name : 2021.06.19.AJPW.Dynamite.Series.Day.2.mp4
Format : MPEG-4
Format profile : Base Media
Codec ID : isom
File size : 1.70 GiB
Duration : 2 h 1 min
Overall bit rate mode : Variable
Overall bit rate : 2 003 kb/s

Video
ID : 1
Format : AVC
Format/Info : Advanced Video
Duration : 2 h 1 min
Duration_FirstFrame : 33 ms
Bit rate : 1 904 kb/s
Width : 1 280 pixels
Height : 720 pixels
Display aspect ratio : 16:9
Frame rate mode : Constant
Frame rate : 30.000 FPS
Color space : YUV
Chroma subsampling : 4:2:0
Bit depth : 8 bits
Scan type : Progressive
Bits/(Pixel*Frame) : 0.069
Stream size : 1.62 GiB (95%)
Codec configuration box : avcC

AJPW Dynamite Series

Audio
ID : 2
Format : AAC LC
Format/Info : Advanced Audio
Codec ID : mp4a-40-2
Duration : 2 h 1 min
Bit rate mode : Variable
Bit rate : 87.7 kb/s
Maximum bit rate : 144 kb/s
Channel(s) : 2 channels
Channel layout : L R
Sampling rate : 44.1 kHz
Frame rate : 43.066 FPS (1024 SPF)
Compression mode : Lossy
Stream size : 76.4 MiB (4%)

AJPW Dynamite Series

 

 

Complete name : 2021.06.19.AJPW.Dynamite.Series.Day.2.mp4
Format : MPEG-4
Format profile : Base Media
Codec ID : isom
File size : 1.70 GiB
Duration : 2 h 1 min
Overall bit rate mode : Variable
Overall bit rate : 2 003 kb/s

Video
ID : 1
Format : AVC
Format/Info : Advanced Video
Duration : 2 h 1 min
Duration_FirstFrame : 33 ms
Bit rate : 1 904 kb/s
Width : 1 280 pixels
Height : 720 pixels
Display aspect ratio : 16:9
Frame rate mode : Constant
Frame rate : 30.000 FPS
Color space : YUV
Chroma subsampling : 4:2:0
Bit depth : 8 bits
Scan type : Progressive
Bits/(Pixel*Frame) : 0.069
Stream size : 1.62 GiB (95%)
Codec configuration box : avcC

AJPW Dynamite Series

Audio
ID : 2
Format : AAC LC
Format/Info : Advanced Audio
Codec ID : mp4a-40-2
Duration : 2 h 1 min
Bit rate mode : Variable
Bit rate : 87.7 kb/s
Maximum bit rate : 144 kb/s
Channel(s) : 2 channels
Channel layout : L R
Sampling rate : 44.1 kHz
Frame rate : 43.066 FPS (1024 SPF)
Compression mode : Lossy
Stream size : 76.4 MiB (4%)

AJPW Dynamite Series

 

 

Complete name : 2021.06.19.AJPW.Dynamite.Series.Day.2.mp4
Format : MPEG-4
Format profile : Base Media
Codec ID : isom
File size : 1.70 GiB
Duration : 2 h 1 min
Overall bit rate mode : Variable
Overall bit rate : 2 003 kb/s

Video
ID : 1
Format : AVC
Format/Info : Advanced Video
Duration : 2 h 1 min
Duration_FirstFrame : 33 ms
Bit rate : 1 904 kb/s
Width : 1 280 pixels
Height : 720 pixels
Display aspect ratio : 16:9
Frame rate mode : Constant
Frame rate : 30.000 FPS
Color space : YUV
Chroma subsampling : 4:2:0
Bit depth : 8 bits
Scan type : Progressive
Bits/(Pixel*Frame) : 0.069
Stream size : 1.62 GiB (95%)
Codec configuration box : avcC

AJPW Dynamite Series

Audio
ID : 2
Format : AAC LC
Format/Info : Advanced Audio
Codec ID : mp4a-40-2
Duration : 2 h 1 min
Bit rate mode : Variable
Bit rate : 87.7 kb/s
Maximum bit rate : 144 kb/s
Channel(s) : 2 channels
Channel layout : L R
Sampling rate : 44.1 kHz
Frame rate : 43.066 FPS (1024 SPF)
Compression mode : Lossy
Stream size : 76.4 MiB (4%)

AJPW Dynamite Series

 

 

Complete name : 2021.06.19.AJPW.Dynamite.Series.Day.2.mp4
Format : MPEG-4
Format profile : Base Media
Codec ID : isom
File size : 1.70 GiB
Duration : 2 h 1 min
Overall bit rate mode : Variable
Overall bit rate : 2 003 kb/s

Video
ID : 1
Format : AVC
Format/Info : Advanced Video
Duration : 2 h 1 min
Duration_FirstFrame : 33 ms
Bit rate : 1 904 kb/s
Width : 1 280 pixels
Height : 720 pixels
Display aspect ratio : 16:9
Frame rate mode : Constant
Frame rate : 30.000 FPS
Color space : YUV
Chroma subsampling : 4:2:0
Bit depth : 8 bits
Scan type : Progressive
Bits/(Pixel*Frame) : 0.069
Stream size : 1.62 GiB (95%)
Codec configuration box : avcC

AJPW Dynamite Series

Audio
ID : 2
Format : AAC LC
Format/Info : Advanced Audio
Codec ID : mp4a-40-2
Duration : 2 h 1 min
Bit rate mode : Variable
Bit rate : 87.7 kb/s
Maximum bit rate : 144 kb/s
Channel(s) : 2 channels
Channel layout : L R
Sampling rate : 44.1 kHz
Frame rate : 43.066 FPS (1024 SPF)
Compression mode : Lossy
Stream size : 76.4 MiB (4%)

AJPW Dynamite Series

 

 

Complete name : 2021.06.19.AJPW.Dynamite.Series.Day.2.mp4
Format : MPEG-4
Format profile : Base Media
Codec ID : isom
File size : 1.70 GiB
Duration : 2 h 1 min
Overall bit rate mode : Variable
Overall bit rate : 2 003 kb/s

Video
ID : 1
Format : AVC
Format/Info : Advanced Video
Duration : 2 h 1 min
Duration_FirstFrame : 33 ms
Bit rate : 1 904 kb/s
Width : 1 280 pixels
Height : 720 pixels
Display aspect ratio : 16:9
Frame rate mode : Constant
Frame rate : 30.000 FPS
Color space : YUV
Chroma subsampling : 4:2:0
Bit depth : 8 bits
Scan type : Progressive
Bits/(Pixel*Frame) : 0.069
Stream size : 1.62 GiB (95%)
Codec configuration box : avcC

AJPW Dynamite Series

Audio
ID : 2
Format : AAC LC
Format/Info : Advanced Audio
Codec ID : mp4a-40-2
Duration : 2 h 1 min
Bit rate mode : Variable
Bit rate : 87.7 kb/s
Maximum bit rate : 144 kb/s
Channel(s) : 2 channels
Channel layout : L R
Sampling rate : 44.1 kHz
Frame rate : 43.066 FPS (1024 SPF)
Compression mode : Lossy
Stream size : 76.4 MiB (4%)

AJPW Dynamite Series

 

 

Complete name : 2021.06.19.AJPW.Dynamite.Series.Day.2.mp4
Format : MPEG-4
Format profile : Base Media
Codec ID : isom
File size : 1.70 GiB
Duration : 2 h 1 min
Overall bit rate mode : Variable
Overall bit rate : 2 003 kb/s

Video
ID : 1
Format : AVC
Format/Info : Advanced Video
Duration : 2 h 1 min
Duration_FirstFrame : 33 ms
Bit rate : 1 904 kb/s
Width : 1 280 pixels
Height : 720 pixels
Display aspect ratio : 16:9
Frame rate mode : Constant
Frame rate : 30.000 FPS
Color space : YUV
Chroma subsampling : 4:2:0
Bit depth : 8 bits
Scan type : Progressive
Bits/(Pixel*Frame) : 0.069
Stream size : 1.62 GiB (95%)
Codec configuration box : avcC

AJPW Dynamite Series

Audio
ID : 2
Format : AAC LC
Format/Info : Advanced Audio
Codec ID : mp4a-40-2
Duration : 2 h 1 min
Bit rate mode : Variable
Bit rate : 87.7 kb/s
Maximum bit rate : 144 kb/s
Channel(s) : 2 channels
Channel layout : L R
Sampling rate : 44.1 kHz
Frame rate : 43.066 FPS (1024 SPF)
Compression mode : Lossy
Stream size : 76.4 MiB (4%)

AJPW Dynamite Series

 

 

Complete name : 2021.06.19.AJPW.Dynamite.Series.Day.2.mp4
Format : MPEG-4
Format profile : Base Media
Codec ID : isom
File size : 1.70 GiB
Duration : 2 h 1 min
Overall bit rate mode : Variable
Overall bit rate : 2 003 kb/s

Video
ID : 1
Format : AVC
Format/Info : Advanced Video
Duration : 2 h 1 min
Duration_FirstFrame : 33 ms
Bit rate : 1 904 kb/s
Width : 1 280 pixels
Height : 720 pixels
Display aspect ratio : 16:9
Frame rate mode : Constant
Frame rate : 30.000 FPS
Color space : YUV
Chroma subsampling : 4:2:0
Bit depth : 8 bits
Scan type : Progressive
Bits/(Pixel*Frame) : 0.069
Stream size : 1.62 GiB (95%)
Codec configuration box : avcC

AJPW Dynamite Series

Audio
ID : 2
Format : AAC LC
Format/Info : Advanced Audio
Codec ID : mp4a-40-2
Duration : 2 h 1 min
Bit rate mode : Variable
Bit rate : 87.7 kb/s
Maximum bit rate : 144 kb/s
Channel(s) : 2 channels
Channel layout : L R
Sampling rate : 44.1 kHz
Frame rate : 43.066 FPS (1024 SPF)
Compression mode : Lossy
Stream size : 76.4 MiB (4%)

AJPW Dynamite Series

 

 

 

 

 

[collapse]

 

 

https://dx-tv.com/

Leave a Reply

Your email address will not be published. Required fields are marked *

This site uses Akismet to reduce spam. Learn how your comment data is processed.

Previous Post
AAW Alive 12

AAW Alive 13 1080p 2021 06 19 Online Free

Next Post
AEW DARK Elevation

AEW DARK Elevation 2021 06 21 Online Free Replay