AJPW Champion Carnival Final 2021 05 03 Tokyo

AJPW Champion Carnival Final 2021 05 03 Tokyo Korakuen Hall DX-TV

AJPW Champion Carnival

 AJPW Champion Carnival Final

 

 

 

Download Links with High Speed


 

Dopapk

 

 

Show Links

 

http://shrt10.com/MO5u99

 

[collapse]

 

 

Nitroflare

 

 

Show Links

 

http://shrt10.com/T87uTf

 

[collapse]

 

 

Rapidgator

 

 

Show Links

 

http://shrt10.com/Zx0bv

 

[collapse]

 

 

Uploaded

 

 

Show Links

 

http://shrt10.com/W1MTMM1Lg

 

[collapse]

 

 

Watch online

 

Server 1

 

 

 

 

AJPW Champion Carnival

 

 

 

 

Server-2

 

 

 

 

watch now

 

 

 

|Server-3

 

 

 

 

watch now

 

 

Uploaded By Site DX-TV.com

 

 

Show Info This Show

 

 

Complete name : 2021.05.03.AJPW.Champion.Carnival.2021.Final.Tokyo.Korakuen.Hall.(Samurai.TV).mp4
Format : MPEG-4
Format profile : Base Media
Codec ID : isom
File size : 3.27 GiB
Duration : 3 h 6 min
Overall bit rate : 2 503 kb/s

AJPW Champion Carnival

Video
ID : 1
Format : AVC
Duration : 3 h 6 min
Bit rate : 2 298 kb/s
Width : 1 280 pixels
Height : 720 pixels
Display aspect ratio : 16:9
Frame rate mode : Constant
Frame rate : 60.000 FPS
Color space : YUV
Chroma subsampling : 4:2:0
Bit depth : 8 bits
Scan type : Progressive
Bits/(Pixel*Frame) : 0.042
Stream size : 3.00 GiB (92%)
Color primaries : BT.709
Transfer characteristics : BT.709
Matrix coefficients : BT.709
Codec configuration box : avcC

Audio
ID : 2
Format : AAC LC
Codec ID : mp4a-40-2
Duration : 3 h 6 min
Bit rate mode : Constant
Bit rate : 192 kb/s
Channel(s) : 2 channels
Channel layout : L R
Sampling rate : 48.0 kHz
Frame rate : 46.875 FPS (1024 SPF)
Compression mode : Lossy
Stream size : 257 MiB (8%)
Title : simple_aac_recording
Default : Yes
Alternate group : 1

AJPW Champion

Audio
ID : 2
Format : AAC LC
Codec ID : mp4a-40-2
Duration : 3 h 6 min
Bit rate mode : Constant
Bit rate : 192 kb/s
Channel(s) : 2 channels
Channel layout : L R
Sampling rate : 48.0 kHz
Frame rate : 46.875 FPS (1024 SPF)
Compression mode : Lossy
Stream size : 257 MiB (8%)
Title : simple_aac_recording
Default : Yes
Alternate group : 1

 

Audio
ID : 2
Format : AAC LC
Codec ID : mp4a-40-2
Duration : 3 h 6 min
Bit rate mode : Constant
Bit rate : 192 kb/s
Channel(s) : 2 channels
Channel layout : L R
Sampling rate : 48.0 kHz
Frame rate : 46.875 FPS (1024 SPF)
Compression mode : Lossy
Stream size : 257 MiB (8%)
Title : simple_aac_recording
Default : Yes
Alternate group : 1

AJPW Champion

Audio
ID : 2
Format : AAC LC
Codec ID : mp4a-40-2
Duration : 3 h 6 min
Bit rate mode : Constant
Bit rate : 192 kb/s
Channel(s) : 2 channels
Channel layout : L R
Sampling rate : 48.0 kHz
Frame rate : 46.875 FPS (1024 SPF)
Compression mode : Lossy
Stream size : 257 MiB (8%)
Title : simple_aac_recording
Default : Yes
Alternate group : 1

AJPW Champion

Audio
ID : 2
Format : AAC LC
Codec ID : mp4a-40-2
Duration : 3 h 6 min
Bit rate mode : Constant
Bit rate : 192 kb/s
Channel(s) : 2 channels
Channel layout : L R
Sampling rate : 48.0 kHz
Frame rate : 46.875 FPS (1024 SPF)
Compression mode : Lossy
Stream size : 257 MiB (8%)
Title : simple_aac_recording
Default : Yes
Alternate group : 1

[collapse]

 

 

https://dx-tv.com/