AJPW Champion Carnival Final 2020 10 05 Free Online

Watch AJPW Champion Carnival Final 2020 10 05 Free Online DX-TV

 

AJPW Champion Carnival Final 2020

 

 AJPW Champion Carnival Final 2020
 


 

 

AJPW Champion Carnival Final 2020 10 05 Free Online

 

Complete name : 2020.10.05.AJPW.Champion.Carnival.2020.Final.Tokyo.Korakuen.Hall.(Samurai.TV).mp4
Format : MPEG-4
Format profile : Base Media
Codec ID : isom
File size : 3.44 GiB
Duration : 3 h 6 min
Overall bit rate : 2 633 kb/s
Writing application : Lavf58.29 

AJPW Champion Carnival Final 2020

Video
ID : 1
Format : AVC
Duration : 3 h 6 min
Bit rate : 2 428 kb/s
Width : 1 280 pixels
Height : 720 pixels
Display aspect ratio : 16:9
Frame rate mode : Constant
Frame rate : 60.000 FPS
Color space : YUV
Chroma subsampling : 4:2:0
Bit depth : 8 bits
Scan type : Progressive
Bits/(Pixel*Frame) : 0.044
Stream size : 3.17 GiB (92%)
Color primaries : BT.709
Transfer characteristics : BT.709
Matrix coefficients : BT.709
Codec configuration box : avcC

AJPW Champion Carnival Final 2020

Audio
ID : 2
Format : AAC LC
Format/Info : Advanced
Codec ID : mp4a-40-2
Duration : 3 h 6 min
Bit rate mode : Constant
Bit rate : 192 kb/s
Channel(s) : 2 channels
Channel layout : L R
Sampling rate : 48.0 kHz
Frame rate : 46.875 FPS
Compression mode : Lossy
Stream size : 257 MiB (7%)
Default : Yes
Alternate group : 1

AJPW Champion Carnival Final 2020

Match 1: JIN [Jake Lee & Koji Iwamoto] & TAJIRI vs. Takao Omori, Black Menso~re & Atsuki Aoyagi

Result: Iwamoto pins Menso~re in 5:51
Rating: **1/4

A perfectly alright match that kicked into a slightly higher gear when Aoyagi ,

and Iwamoto faced off against each other. Aoyagi continues to look very good as the high flyer of the company,

and I loved the intensity he showed against Iwamoto.

These two are set to have their title match on the October 24 Korakuen Hall show.

Post-match, a springboard dropkick from Aoyagi sends Iwamoto out of the ring! Great stuff;

allows for both competitors to look good going forward.

 Champion Carnival Final 2020

Match 2: Hikaru Sato & Ryuji Honda vs. Osamu Nishimura & Ryuji Hijikata

Result: Hijikata submits Honda in 4:33
Rating: **1/4

Another decent match that revolved around a technical submission-based style which I’m always a fan of.

The rookie Honda looked good out here and played his role perfectly of being a young boy trying to mount a comeback .

but being outwrestled by his more experienced opponents.

 

 Champion Carnival Final 2020 10 05 Free Online

 

 

Watch online

 

 

Server 1

 

 

 

 

watch now

 

 

 

 

Server-2

 

 

 

AJPW Champion Carnival Final 2020

 

 

 

 

Server-3

 

 

 

AJPW Champion Carnival Final 2020

 

 

 

 

Uploaded By Site DX-TV.com

 

 

 

 

Download Free Links with normal and high Speed [ more 14 hosts ]  

 

 

 

 

http://shrt10.com/XACcHG
http://shrt10.com/DhP3h
http://shrt10.com/ertSyh
http://shrt10.com/Kc4lBt
http://shrt10.com/yCtGL
http://shrt10.com/MQeucrFx
http://shrt10.com/IORVjZ

 

 

 

Download Links with premium High Speed   

 

 

dropapk.to

 

 

 

nitroflare.com

 

 

 

rapidgator.net

 

 

 

uploaded.net

 

 

 

uploadgig.com

 

 

 

 

 

dx-tv.com

 

urlfree.net

Leave a Reply

Your email address will not be published. Required fields are marked *

This site uses Akismet to reduce spam. Learn how your comment data is processed.