AJPW Champion Carnival Day 4 2021 04 17

AJPW Champion Carnival Day 4 2021 04 17 DX-TV

AJPW Champion Carnival

 AJPW Champion Carnival

 

 

 

Download Links with High Speed


Dopapk

 

 

Show Links

 

http://shrt10.com/txJFCY

 

[collapse]

 

 

Nitroflare

 

 

Show Links

 

http://shrt10.com/hV9lc

 

[collapse]

 

 

Rapidgator

 

 

Show Links

 

http://shrt10.com/00NEwI

 

[collapse]

 

 

Uploaded

 

 

Show Links

 

http://shrt10.com/Q8YzboHl6

 

[collapse]

 

 

Watch online

 

Server 1

 

 

 

 

watch now

 

 

 

 

Server-2

 

 

 

 

AJPW Champion Carnival

 

 

 

|Server-3

 

 

 

 

watch now

 

 

Uploaded By Site DX-TV.com

 

 

Show Info This Show

 

 

Complete name : 2021.04.17.AJPW.Champion.Carnival.Day.4.mp4
Format : MPEG-4
Format profile : Base Media
Codec ID : isom
File size : 1.71 GiB
Duration : 2 h 0 min
Overall bit rate : 2 034 kb/s

AJPW Champion Carnival

Video
ID : 1
Format : AVC
Duration : 2 h 0 min
Bit rate : 1 929 kb/s
Width : 1 280 pixels
Height : 720 pixels
Display aspect ratio : 16:9
Frame rate mode : Variable
Frame rate : 29.920 FPS
Minimum frame rate : 0.545 FPS
Maximum frame rate : 90 000.000 FPS
Color space : YUV
Chroma subsampling : 4:2:0
Bit depth : 8 bits
Scan type : Progressive
Bits/(Pixel*Frame) : 0.070
Stream size : 1.63 GiB (95%)
Color range : Full
Color primaries : BT.709
Transfer characteristics : BT.709
Matrix coefficients : BT.709
Codec configuration box : avcC

Audio
ID : 2
Format : AAC LC
Codec ID : mp4a-40-2
Duration : 2 h 0 min
Bit rate mode : Constant
Bit rate : 96.0 kb/s
Channel(s) : 2 channels
Channel layout : L R
Sampling rate : 48.0 kHz
Frame rate : 46.875 FPS
Compression mode : Lossy
Stream size : 82.9 MiB
Default : Yes
Alternate group : 1

Champion Carnival

Audio
ID : 2
Format : AAC LC
Codec ID : mp4a-40-2
Duration : 2 h 0 min
Bit rate mode : Constant
Bit rate : 96.0 kb/s
Channel(s) : 2 channels
Channel layout : L R
Sampling rate : 48.0 kHz
Frame rate : 46.875 FPS
Compression mode : Lossy
Stream size : 82.9 MiB
Default : Yes
Alternate group : 1

Audio
ID : 2
Format : AAC LC
Codec ID : mp4a-40-2
Duration : 2 h 0 min
Bit rate mode : Constant
Bit rate : 96.0 kb/s
Channel(s) : 2 channels
Channel layout : L R
Sampling rate : 48.0 kHz
Frame rate : 46.875 FPS
Compression mode : Lossy
Stream size : 82.9 MiB
Default : Yes
Alternate group : 1

Champion Carnival

Audio
ID : 2
Format : AAC LC
Codec ID : mp4a-40-2
Duration : 2 h 0 min
Bit rate mode : Constant
Bit rate : 96.0 kb/s
Channel(s) : 2 channels
Channel layout : L R
Sampling rate : 48.0 kHz
Frame rate : 46.875 FPS
Compression mode : Lossy
Stream size : 82.9 MiB
Default : Yes
Alternate group : 1

 

Champion Carnival

[collapse]

 

 

https://dx-tv.com/