AJPW Champion Carnival 2018 Day 10 2018 04 20 720p Watch / Download

AJPW Champion Carnival 2018 Day 10 2018 04 20 720p Watch / Download

 

 

 

 

 

 

 

 

dx-tv.com

 

 

 

 

Complete name : AJPW.Champion.Carnival.2018.Day.10.2018.04.20.720p.WEB-DL.mp4
Format : MPEG-4
Format profile : Base Media
Codec ID : isom
File size : 1.72 GiB
Duration : 2h 2mn
Overall bit rate : 2 007 Kbps
Writing application : Lavf58.11.101

Video
ID : 1
Format : AVC
Format/Info : Advanced Video Codec
Codec ID : avc1
Codec ID/Info : Advanced Video Coding
Duration : 2h 2mn
Bit rate mode : Variable
Bit rate : 1 904 Kbps
Width : 1 280 pixels
Height : 720 pixels
Display aspect ratio : 16:9
Frame rate mode : Constant
Frame rate : 30.000 fps
Color space : YUV
Chroma subsampling : 4:2:0
Bit depth : 8 bits
Scan type : Progressive
Bits/(Pixel*Frame) : 0.069
Stream size : 1.64 GiB (95%)

Audio
ID : 2
Format : AAC
Format/Info : Advanced Audio Codec
Format profile : LC
Codec ID : 40
Duration : 2h 2mn
Bit rate mode : Constant
Bit rate : 93.9 Kbps
Channel(s) : 2 channels
Channel positions : Front: L R
Sampling rate : 44.1 KHz
Compression mode : Lossy
Stream size : 82.5 MiB (5%)

 

 

 

 

 

 

 

 

 

AJPW Champion Carnival 2018 Day 10 2018 04 20 720p Watch / Download

 

 

 

 

Watch online

 

 

Waiting finish converting video

 

 

Server 1

 

 

 

 

 

 

 

 

 

 

 

 

 

Server 2

 

 

 

 

 

 

 

 

 

 

 

 

Uploaded By Site DX-TV.com

 

 

 

open rar file to see this password

 

 

 

 

 

 

Uploaded.net + rapidgator.net

 

 

 

 

 

http://shrt10.com/8T4NCX

 

 

 

 

 

 

http://shrt10.com/QSIMwe

 

 

 

 

 

 

 

 

 

AJPW Champion Carnival 2018 Day 10 2018 04 20 720p Watch / Download