AJPW 2021 07 18 Summer Action Series Day 3 2021 07 18 Online Free Replay DX-TV

AJPW 2021

 AJPW 2021

 

 

 

Download Links with premium High Speed


 

Dopapk

 

 

Show Links

 

http://shrt10.com/eRZ4rz

 

[collapse]

 

 

Nitroflare

 

 

Show Links

 

http://shrt10.com/s7iTu

 

[collapse]

 

 

Rapidgator

 

 

Show Links

 

http://shrt10.com/dn0llE44

 

[collapse]

 

 

Uploaded

 

 

Show Links

 

http://shrt10.com/lZ5Un

 

[collapse]

 

 

Watch online

 

Server 1

 

AJPW 2021

 

 

AJPW 2021

 

 

 

 

Server-2

 

 

 

 

watch now

 

 

 

|Server-3

 

 

 

 

watch now

 

 

Uploaded By Site DX-TV.com

 

 

Show Info This Show

 

AJPW 2021

General

Complete name : 2021.07.18.AJPW.Summer.Action.Series.2021.Day.4.mp4
Format : MPEG-4
Format profile : Base Media
Codec ID : isom
File size : 1.69 GiB
Duration : 1 h 58 min
Overall bit rate mode : Variable
Overall bit rate : 2 040 kb/s

AJPW 2021

Video
ID : 1
Format : AVC
Format/Info : Advanced Video
Duration : 1 h 58 min
Duration_FirstFrame : 33 ms
Bit rate : 1 904 kb/s
Width : 1 280 pixels
Height : 720 pixels
Display aspect ratio : 16:9
Frame rate mode : Constant
Frame rate : 30.000 FPS
Color space : YUV
Chroma subsampling : 4:2:0
Bit depth : 8 bits
Scan type : Progressive
Bits/(Pixel*Frame) : 0.069
Stream size : 1.58 GiB (93%)

AJPW 2021

Audio
ID : 2
Format : AAC LC
Format/Info : Advanced Audio
Codec ID : mp4a-40-2
Duration : 1 h 58 min
Bit rate mode : Variable
Bit rate : 125 kb/s
Maximum bit rate : 276 kb/s
Channel(s) : 2 channels
Channel layout : L R
Sampling rate : 44.1 kHz
Frame rate : 43.066 FPS
Compression mode : Lossy
Stream size : 106 MiB (6%)
mdhd_Duration : 7112203

AJPW 2021

Complete name : 2021.07.18.AJPW.Summer.Action.Series.2021.Day.4.mp4
Format : MPEG-4
Format profile : Base Media
Codec ID : isom
File size : 1.69 GiB
Duration : 1 h 58 min
Overall bit rate mode : Variable
Overall bit rate : 2 040 kb/s

AJPW 2021

Video
ID : 1
Format : AVC
Format/Info : Advanced Video
Duration : 1 h 58 min
Duration_FirstFrame : 33 ms
Bit rate : 1 904 kb/s
Width : 1 280 pixels
Height : 720 pixels
Display aspect ratio : 16:9
Frame rate mode : Constant
Frame rate : 30.000 FPS
Color space : YUV
Chroma subsampling : 4:2:0
Bit depth : 8 bits
Scan type : Progressive
Bits/(Pixel*Frame) : 0.069
Stream size : 1.58 GiB (93%)

AJPW 2021

Audio
ID : 2
Format : AAC LC
Format/Info : Advanced Audio
Codec ID : mp4a-40-2
Duration : 1 h 58 min
Bit rate mode : Variable
Bit rate : 125 kb/s
Maximum bit rate : 276 kb/s
Channel(s) : 2 channels
Channel layout : L R
Sampling rate : 44.1 kHz
Frame rate : 43.066 FPS
Compression mode : Lossy
Stream size : 106 MiB (6%)
mdhd_Duration : 7112203

AJPW 2021

Complete name : 2021.07.18.AJPW.Summer.Action.Series.2021.Day.4.mp4
Format : MPEG-4
Format profile : Base Media
Codec ID : isom
File size : 1.69 GiB
Duration : 1 h 58 min
Overall bit rate mode : Variable
Overall bit rate : 2 040 kb/s

AJPW 2021

Video
ID : 1
Format : AVC
Format/Info : Advanced Video
Duration : 1 h 58 min
Duration_FirstFrame : 33 ms
Bit rate : 1 904 kb/s
Width : 1 280 pixels
Height : 720 pixels
Display aspect ratio : 16:9
Frame rate mode : Constant
Frame rate : 30.000 FPS
Color space : YUV
Chroma subsampling : 4:2:0
Bit depth : 8 bits
Scan type : Progressive
Bits/(Pixel*Frame) : 0.069
Stream size : 1.58 GiB (93%)

AJPW 2021

Audio
ID : 2
Format : AAC LC
Format/Info : Advanced Audio
Codec ID : mp4a-40-2
Duration : 1 h 58 min
Bit rate mode : Variable
Bit rate : 125 kb/s
Maximum bit rate : 276 kb/s
Channel(s) : 2 channels
Channel layout : L R
Sampling rate : 44.1 kHz
Frame rate : 43.066 FPS
Compression mode : Lossy
Stream size : 106 MiB (6%)
mdhd_Duration : 7112203

AJPW 2021

Complete name : 2021.07.18.AJPW.Summer.Action.Series.2021.Day.4.mp4
Format : MPEG-4
Format profile : Base Media
Codec ID : isom
File size : 1.69 GiB
Duration : 1 h 58 min
Overall bit rate mode : Variable
Overall bit rate : 2 040 kb/s

AJPW 2021

Video
ID : 1
Format : AVC
Format/Info : Advanced Video
Duration : 1 h 58 min
Duration_FirstFrame : 33 ms
Bit rate : 1 904 kb/s
Width : 1 280 pixels
Height : 720 pixels
Display aspect ratio : 16:9
Frame rate mode : Constant
Frame rate : 30.000 FPS
Color space : YUV
Chroma subsampling : 4:2:0
Bit depth : 8 bits
Scan type : Progressive
Bits/(Pixel*Frame) : 0.069
Stream size : 1.58 GiB (93%)

AJPW 2021

Audio
ID : 2
Format : AAC LC
Format/Info : Advanced Audio
Codec ID : mp4a-40-2
Duration : 1 h 58 min
Bit rate mode : Variable
Bit rate : 125 kb/s
Maximum bit rate : 276 kb/s
Channel(s) : 2 channels
Channel layout : L R
Sampling rate : 44.1 kHz
Frame rate : 43.066 FPS
Compression mode : Lossy
Stream size : 106 MiB (6%)
mdhd_Duration : 7112203

AJPW 2021

Complete name : 2021.07.18.AJPW.Summer.Action.Series.2021.Day.4.mp4
Format : MPEG-4
Format profile : Base Media
Codec ID : isom
File size : 1.69 GiB
Duration : 1 h 58 min
Overall bit rate mode : Variable
Overall bit rate : 2 040 kb/s

AJPW 2021

Video
ID : 1
Format : AVC
Format/Info : Advanced Video
Duration : 1 h 58 min
Duration_FirstFrame : 33 ms
Bit rate : 1 904 kb/s
Width : 1 280 pixels
Height : 720 pixels
Display aspect ratio : 16:9
Frame rate mode : Constant
Frame rate : 30.000 FPS
Color space : YUV
Chroma subsampling : 4:2:0
Bit depth : 8 bits
Scan type : Progressive
Bits/(Pixel*Frame) : 0.069
Stream size : 1.58 GiB (93%)

AJPW 2021

Audio
ID : 2
Format : AAC LC
Format/Info : Advanced Audio
Codec ID : mp4a-40-2
Duration : 1 h 58 min
Bit rate mode : Variable
Bit rate : 125 kb/s
Maximum bit rate : 276 kb/s
Channel(s) : 2 channels
Channel layout : L R
Sampling rate : 44.1 kHz
Frame rate : 43.066 FPS
Compression mode : Lossy
Stream size : 106 MiB (6%)
mdhd_Duration : 7112203

AJPW 2021

Complete name : 2021.07.18.AJPW.Summer.Action.Series.2021.Day.4.mp4
Format : MPEG-4
Format profile : Base Media
Codec ID : isom
File size : 1.69 GiB
Duration : 1 h 58 min
Overall bit rate mode : Variable
Overall bit rate : 2 040 kb/s

AJPW 2021

Video
ID : 1
Format : AVC
Format/Info : Advanced Video
Duration : 1 h 58 min
Duration_FirstFrame : 33 ms
Bit rate : 1 904 kb/s
Width : 1 280 pixels
Height : 720 pixels
Display aspect ratio : 16:9
Frame rate mode : Constant
Frame rate : 30.000 FPS
Color space : YUV
Chroma subsampling : 4:2:0
Bit depth : 8 bits
Scan type : Progressive
Bits/(Pixel*Frame) : 0.069
Stream size : 1.58 GiB (93%)

AJPW 2021

Audio
ID : 2
Format : AAC LC
Format/Info : Advanced Audio
Codec ID : mp4a-40-2
Duration : 1 h 58 min
Bit rate mode : Variable
Bit rate : 125 kb/s
Maximum bit rate : 276 kb/s
Channel(s) : 2 channels
Channel layout : L R
Sampling rate : 44.1 kHz
Frame rate : 43.066 FPS
Compression mode : Lossy
Stream size : 106 MiB (6%)
mdhd_Duration : 7112203

AJPW 2021

Complete name : 2021.07.18.AJPW.Summer.Action.Series.2021.Day.4.mp4
Format : MPEG-4
Format profile : Base Media
Codec ID : isom
File size : 1.69 GiB
Duration : 1 h 58 min
Overall bit rate mode : Variable
Overall bit rate : 2 040 kb/s

AJPW 2021

Video
ID : 1
Format : AVC
Format/Info : Advanced Video
Duration : 1 h 58 min
Duration_FirstFrame : 33 ms
Bit rate : 1 904 kb/s
Width : 1 280 pixels
Height : 720 pixels
Display aspect ratio : 16:9
Frame rate mode : Constant
Frame rate : 30.000 FPS
Color space : YUV
Chroma subsampling : 4:2:0
Bit depth : 8 bits
Scan type : Progressive
Bits/(Pixel*Frame) : 0.069
Stream size : 1.58 GiB (93%)

AJPW 2021

Audio
ID : 2
Format : AAC LC
Format/Info : Advanced Audio
Codec ID : mp4a-40-2
Duration : 1 h 58 min
Bit rate mode : Variable
Bit rate : 125 kb/s
Maximum bit rate : 276 kb/s
Channel(s) : 2 channels
Channel layout : L R
Sampling rate : 44.1 kHz
Frame rate : 43.066 FPS
Compression mode : Lossy
Stream size : 106 MiB (6%)
mdhd_Duration : 7112203

AJPW 2021

Complete name : 2021.07.18.AJPW.Summer.Action.Series.2021.Day.4.mp4
Format : MPEG-4
Format profile : Base Media
Codec ID : isom
File size : 1.69 GiB
Duration : 1 h 58 min
Overall bit rate mode : Variable
Overall bit rate : 2 040 kb/s

AJPW 2021

Video
ID : 1
Format : AVC
Format/Info : Advanced Video
Duration : 1 h 58 min
Duration_FirstFrame : 33 ms
Bit rate : 1 904 kb/s
Width : 1 280 pixels
Height : 720 pixels
Display aspect ratio : 16:9
Frame rate mode : Constant
Frame rate : 30.000 FPS
Color space : YUV
Chroma subsampling : 4:2:0
Bit depth : 8 bits
Scan type : Progressive
Bits/(Pixel*Frame) : 0.069
Stream size : 1.58 GiB (93%)

AJPW 2021

Audio
ID : 2
Format : AAC LC
Format/Info : Advanced Audio
Codec ID : mp4a-40-2
Duration : 1 h 58 min
Bit rate mode : Variable
Bit rate : 125 kb/s
Maximum bit rate : 276 kb/s
Channel(s) : 2 channels
Channel layout : L R
Sampling rate : 44.1 kHz
Frame rate : 43.066 FPS
Compression mode : Lossy
Stream size : 106 MiB (6%)
mdhd_Duration : 7112203

AJPW 2021

Complete name : 2021.07.18.AJPW.Summer.Action.Series.2021.Day.4.mp4
Format : MPEG-4
Format profile : Base Media
Codec ID : isom
File size : 1.69 GiB
Duration : 1 h 58 min
Overall bit rate mode : Variable
Overall bit rate : 2 040 kb/s

AJPW 2021

Video
ID : 1
Format : AVC
Format/Info : Advanced Video
Duration : 1 h 58 min
Duration_FirstFrame : 33 ms
Bit rate : 1 904 kb/s
Width : 1 280 pixels
Height : 720 pixels
Display aspect ratio : 16:9
Frame rate mode : Constant
Frame rate : 30.000 FPS
Color space : YUV
Chroma subsampling : 4:2:0
Bit depth : 8 bits
Scan type : Progressive
Bits/(Pixel*Frame) : 0.069
Stream size : 1.58 GiB (93%)

AJPW 2021

Audio
ID : 2
Format : AAC LC
Format/Info : Advanced Audio
Codec ID : mp4a-40-2
Duration : 1 h 58 min
Bit rate mode : Variable
Bit rate : 125 kb/s
Maximum bit rate : 276 kb/s
Channel(s) : 2 channels
Channel layout : L R
Sampling rate : 44.1 kHz
Frame rate : 43.066 FPS
Compression mode : Lossy
Stream size : 106 MiB (6%)
mdhd_Duration : 7112203

AJPW 2021

Complete name : 2021.07.18.AJPW.Summer.Action.Series.2021.Day.4.mp4
Format : MPEG-4
Format profile : Base Media
Codec ID : isom
File size : 1.69 GiB
Duration : 1 h 58 min
Overall bit rate mode : Variable
Overall bit rate : 2 040 kb/s

AJPW 2021

Video
ID : 1
Format : AVC
Format/Info : Advanced Video
Duration : 1 h 58 min
Duration_FirstFrame : 33 ms
Bit rate : 1 904 kb/s
Width : 1 280 pixels
Height : 720 pixels
Display aspect ratio : 16:9
Frame rate mode : Constant
Frame rate : 30.000 FPS
Color space : YUV
Chroma subsampling : 4:2:0
Bit depth : 8 bits
Scan type : Progressive
Bits/(Pixel*Frame) : 0.069
Stream size : 1.58 GiB (93%)

AJPW 2021

Audio
ID : 2
Format : AAC LC
Format/Info : Advanced Audio
Codec ID : mp4a-40-2
Duration : 1 h 58 min
Bit rate mode : Variable
Bit rate : 125 kb/s
Maximum bit rate : 276 kb/s
Channel(s) : 2 channels
Channel layout : L R
Sampling rate : 44.1 kHz
Frame rate : 43.066 FPS
Compression mode : Lossy
Stream size : 106 MiB (6%)
mdhd_Duration : 7112203

AJPW 2021

Complete name : 2021.07.18.AJPW.Summer.Action.Series.2021.Day.4.mp4
Format : MPEG-4
Format profile : Base Media
Codec ID : isom
File size : 1.69 GiB
Duration : 1 h 58 min
Overall bit rate mode : Variable
Overall bit rate : 2 040 kb/s

AJPW 2021

Video
ID : 1
Format : AVC
Format/Info : Advanced Video
Duration : 1 h 58 min
Duration_FirstFrame : 33 ms
Bit rate : 1 904 kb/s
Width : 1 280 pixels
Height : 720 pixels
Display aspect ratio : 16:9
Frame rate mode : Constant
Frame rate : 30.000 FPS
Color space : YUV
Chroma subsampling : 4:2:0
Bit depth : 8 bits
Scan type : Progressive
Bits/(Pixel*Frame) : 0.069
Stream size : 1.58 GiB (93%)

AJPW 2021

Audio
ID : 2
Format : AAC LC
Format/Info : Advanced Audio
Codec ID : mp4a-40-2
Duration : 1 h 58 min
Bit rate mode : Variable
Bit rate : 125 kb/s
Maximum bit rate : 276 kb/s
Channel(s) : 2 channels
Channel layout : L R
Sampling rate : 44.1 kHz
Frame rate : 43.066 FPS
Compression mode : Lossy
Stream size : 106 MiB (6%)
mdhd_Duration : 7112203

AJPW 2021

Complete name : 2021.07.18.AJPW.Summer.Action.Series.2021.Day.4.mp4
Format : MPEG-4
Format profile : Base Media
Codec ID : isom
File size : 1.69 GiB
Duration : 1 h 58 min
Overall bit rate mode : Variable
Overall bit rate : 2 040 kb/s

AJPW 2021

Video
ID : 1
Format : AVC
Format/Info : Advanced Video
Duration : 1 h 58 min
Duration_FirstFrame : 33 ms
Bit rate : 1 904 kb/s
Width : 1 280 pixels
Height : 720 pixels
Display aspect ratio : 16:9
Frame rate mode : Constant
Frame rate : 30.000 FPS
Color space : YUV
Chroma subsampling : 4:2:0
Bit depth : 8 bits
Scan type : Progressive
Bits/(Pixel*Frame) : 0.069
Stream size : 1.58 GiB (93%)

AJPW 2021

Audio
ID : 2
Format : AAC LC
Format/Info : Advanced Audio
Codec ID : mp4a-40-2
Duration : 1 h 58 min
Bit rate mode : Variable
Bit rate : 125 kb/s
Maximum bit rate : 276 kb/s
Channel(s) : 2 channels
Channel layout : L R
Sampling rate : 44.1 kHz
Frame rate : 43.066 FPS
Compression mode : Lossy
Stream size : 106 MiB (6%)
mdhd_Duration : 7112203

AJPW 2021

Complete name : 2021.07.18.AJPW.Summer.Action.Series.2021.Day.4.mp4
Format : MPEG-4
Format profile : Base Media
Codec ID : isom
File size : 1.69 GiB
Duration : 1 h 58 min
Overall bit rate mode : Variable
Overall bit rate : 2 040 kb/s

AJPW 2021

Video
ID : 1
Format : AVC
Format/Info : Advanced Video
Duration : 1 h 58 min
Duration_FirstFrame : 33 ms
Bit rate : 1 904 kb/s
Width : 1 280 pixels
Height : 720 pixels
Display aspect ratio : 16:9
Frame rate mode : Constant
Frame rate : 30.000 FPS
Color space : YUV
Chroma subsampling : 4:2:0
Bit depth : 8 bits
Scan type : Progressive
Bits/(Pixel*Frame) : 0.069
Stream size : 1.58 GiB (93%)

AJPW 2021

Audio
ID : 2
Format : AAC LC
Format/Info : Advanced Audio
Codec ID : mp4a-40-2
Duration : 1 h 58 min
Bit rate mode : Variable
Bit rate : 125 kb/s
Maximum bit rate : 276 kb/s
Channel(s) : 2 channels
Channel layout : L R
Sampling rate : 44.1 kHz
Frame rate : 43.066 FPS
Compression mode : Lossy
Stream size : 106 MiB (6%)
mdhd_Duration : 7112203

AJPW 2021

Complete name : 2021.07.18.AJPW.Summer.Action.Series.2021.Day.4.mp4
Format : MPEG-4
Format profile : Base Media
Codec ID : isom
File size : 1.69 GiB
Duration : 1 h 58 min
Overall bit rate mode : Variable
Overall bit rate : 2 040 kb/s

AJPW 2021

Video
ID : 1
Format : AVC
Format/Info : Advanced Video
Duration : 1 h 58 min
Duration_FirstFrame : 33 ms
Bit rate : 1 904 kb/s
Width : 1 280 pixels
Height : 720 pixels
Display aspect ratio : 16:9
Frame rate mode : Constant
Frame rate : 30.000 FPS
Color space : YUV
Chroma subsampling : 4:2:0
Bit depth : 8 bits
Scan type : Progressive
Bits/(Pixel*Frame) : 0.069
Stream size : 1.58 GiB (93%)

AJPW 2021

Audio
ID : 2
Format : AAC LC
Format/Info : Advanced Audio
Codec ID : mp4a-40-2
Duration : 1 h 58 min
Bit rate mode : Variable
Bit rate : 125 kb/s
Maximum bit rate : 276 kb/s
Channel(s) : 2 channels
Channel layout : L R
Sampling rate : 44.1 kHz
Frame rate : 43.066 FPS
Compression mode : Lossy
Stream size : 106 MiB (6%)
mdhd_Duration : 7112203

AJPW 2021

Complete name : 2021.07.18.AJPW.Summer.Action.Series.2021.Day.4.mp4
Format : MPEG-4
Format profile : Base Media
Codec ID : isom
File size : 1.69 GiB
Duration : 1 h 58 min
Overall bit rate mode : Variable
Overall bit rate : 2 040 kb/s

AJPW 2021

Video
ID : 1
Format : AVC
Format/Info : Advanced Video
Duration : 1 h 58 min
Duration_FirstFrame : 33 ms
Bit rate : 1 904 kb/s
Width : 1 280 pixels
Height : 720 pixels
Display aspect ratio : 16:9
Frame rate mode : Constant
Frame rate : 30.000 FPS
Color space : YUV
Chroma subsampling : 4:2:0
Bit depth : 8 bits
Scan type : Progressive
Bits/(Pixel*Frame) : 0.069
Stream size : 1.58 GiB (93%)

AJPW 2021

Audio
ID : 2
Format : AAC LC
Format/Info : Advanced Audio
Codec ID : mp4a-40-2
Duration : 1 h 58 min
Bit rate mode : Variable
Bit rate : 125 kb/s
Maximum bit rate : 276 kb/s
Channel(s) : 2 channels
Channel layout : L R
Sampling rate : 44.1 kHz
Frame rate : 43.066 FPS
Compression mode : Lossy
Stream size : 106 MiB (6%)
mdhd_Duration : 7112203

AJPW 2021

Complete name : 2021.07.18.AJPW.Summer.Action.Series.2021.Day.4.mp4
Format : MPEG-4
Format profile : Base Media
Codec ID : isom
File size : 1.69 GiB
Duration : 1 h 58 min
Overall bit rate mode : Variable
Overall bit rate : 2 040 kb/s

AJPW 2021

Video
ID : 1
Format : AVC
Format/Info : Advanced Video
Duration : 1 h 58 min
Duration_FirstFrame : 33 ms
Bit rate : 1 904 kb/s
Width : 1 280 pixels
Height : 720 pixels
Display aspect ratio : 16:9
Frame rate mode : Constant
Frame rate : 30.000 FPS
Color space : YUV
Chroma subsampling : 4:2:0
Bit depth : 8 bits
Scan type : Progressive
Bits/(Pixel*Frame) : 0.069
Stream size : 1.58 GiB (93%)

AJPW 2021

Audio
ID : 2
Format : AAC LC
Format/Info : Advanced Audio
Codec ID : mp4a-40-2
Duration : 1 h 58 min
Bit rate mode : Variable
Bit rate : 125 kb/s
Maximum bit rate : 276 kb/s
Channel(s) : 2 channels
Channel layout : L R
Sampling rate : 44.1 kHz
Frame rate : 43.066 FPS
Compression mode : Lossy
Stream size : 106 MiB (6%)
mdhd_Duration : 7112203

AJPW 2021

Complete name : 2021.07.18.AJPW.Summer.Action.Series.2021.Day.4.mp4
Format : MPEG-4
Format profile : Base Media
Codec ID : isom
File size : 1.69 GiB
Duration : 1 h 58 min
Overall bit rate mode : Variable
Overall bit rate : 2 040 kb/s

AJPW 2021

Video
ID : 1
Format : AVC
Format/Info : Advanced Video
Duration : 1 h 58 min
Duration_FirstFrame : 33 ms
Bit rate : 1 904 kb/s
Width : 1 280 pixels
Height : 720 pixels
Display aspect ratio : 16:9
Frame rate mode : Constant
Frame rate : 30.000 FPS
Color space : YUV
Chroma subsampling : 4:2:0
Bit depth : 8 bits
Scan type : Progressive
Bits/(Pixel*Frame) : 0.069
Stream size : 1.58 GiB (93%)

AJPW 2021

Audio
ID : 2
Format : AAC LC
Format/Info : Advanced Audio
Codec ID : mp4a-40-2
Duration : 1 h 58 min
Bit rate mode : Variable
Bit rate : 125 kb/s
Maximum bit rate : 276 kb/s
Channel(s) : 2 channels
Channel layout : L R
Sampling rate : 44.1 kHz
Frame rate : 43.066 FPS
Compression mode : Lossy
Stream size : 106 MiB (6%)
mdhd_Duration : 7112203

AJPW 2021

Complete name : 2021.07.18.AJPW.Summer.Action.Series.2021.Day.4.mp4
Format : MPEG-4
Format profile : Base Media
Codec ID : isom
File size : 1.69 GiB
Duration : 1 h 58 min
Overall bit rate mode : Variable
Overall bit rate : 2 040 kb/s

AJPW 2021

Video
ID : 1
Format : AVC
Format/Info : Advanced Video
Duration : 1 h 58 min
Duration_FirstFrame : 33 ms
Bit rate : 1 904 kb/s
Width : 1 280 pixels
Height : 720 pixels
Display aspect ratio : 16:9
Frame rate mode : Constant
Frame rate : 30.000 FPS
Color space : YUV
Chroma subsampling : 4:2:0
Bit depth : 8 bits
Scan type : Progressive
Bits/(Pixel*Frame) : 0.069
Stream size : 1.58 GiB (93%)

AJPW 2021

Audio
ID : 2
Format : AAC LC
Format/Info : Advanced Audio
Codec ID : mp4a-40-2
Duration : 1 h 58 min
Bit rate mode : Variable
Bit rate : 125 kb/s
Maximum bit rate : 276 kb/s
Channel(s) : 2 channels
Channel layout : L R
Sampling rate : 44.1 kHz
Frame rate : 43.066 FPS
Compression mode : Lossy
Stream size : 106 MiB (6%)
mdhd_Duration : 7112203

AJPW 2021

Complete name : 2021.07.18.AJPW.Summer.Action.Series.2021.Day.4.mp4
Format : MPEG-4
Format profile : Base Media
Codec ID : isom
File size : 1.69 GiB
Duration : 1 h 58 min
Overall bit rate mode : Variable
Overall bit rate : 2 040 kb/s

AJPW 2021

Video
ID : 1
Format : AVC
Format/Info : Advanced Video
Duration : 1 h 58 min
Duration_FirstFrame : 33 ms
Bit rate : 1 904 kb/s
Width : 1 280 pixels
Height : 720 pixels
Display aspect ratio : 16:9
Frame rate mode : Constant
Frame rate : 30.000 FPS
Color space : YUV
Chroma subsampling : 4:2:0
Bit depth : 8 bits
Scan type : Progressive
Bits/(Pixel*Frame) : 0.069
Stream size : 1.58 GiB (93%)

AJPW 2021

Audio
ID : 2
Format : AAC LC
Format/Info : Advanced Audio
Codec ID : mp4a-40-2
Duration : 1 h 58 min
Bit rate mode : Variable
Bit rate : 125 kb/s
Maximum bit rate : 276 kb/s
Channel(s) : 2 channels
Channel layout : L R
Sampling rate : 44.1 kHz
Frame rate : 43.066 FPS
Compression mode : Lossy
Stream size : 106 MiB (6%)
mdhd_Duration : 7112203

AJPW 2021

Complete name : 2021.07.18.AJPW.Summer.Action.Series.2021.Day.4.mp4
Format : MPEG-4
Format profile : Base Media
Codec ID : isom
File size : 1.69 GiB
Duration : 1 h 58 min
Overall bit rate mode : Variable
Overall bit rate : 2 040 kb/s

AJPW 2021

Video
ID : 1
Format : AVC
Format/Info : Advanced Video
Duration : 1 h 58 min
Duration_FirstFrame : 33 ms
Bit rate : 1 904 kb/s
Width : 1 280 pixels
Height : 720 pixels
Display aspect ratio : 16:9
Frame rate mode : Constant
Frame rate : 30.000 FPS
Color space : YUV
Chroma subsampling : 4:2:0
Bit depth : 8 bits
Scan type : Progressive
Bits/(Pixel*Frame) : 0.069
Stream size : 1.58 GiB (93%)

AJPW 2021

Audio
ID : 2
Format : AAC LC
Format/Info : Advanced Audio
Codec ID : mp4a-40-2
Duration : 1 h 58 min
Bit rate mode : Variable
Bit rate : 125 kb/s
Maximum bit rate : 276 kb/s
Channel(s) : 2 channels
Channel layout : L R
Sampling rate : 44.1 kHz
Frame rate : 43.066 FPS
Compression mode : Lossy
Stream size : 106 MiB (6%)
mdhd_Duration : 7112203

AJPW 2021

Complete name : 2021.07.18.AJPW.Summer.Action.Series.2021.Day.4.mp4
Format : MPEG-4
Format profile : Base Media
Codec ID : isom
File size : 1.69 GiB
Duration : 1 h 58 min
Overall bit rate mode : Variable
Overall bit rate : 2 040 kb/s

AJPW 2021

Video
ID : 1
Format : AVC
Format/Info : Advanced Video
Duration : 1 h 58 min
Duration_FirstFrame : 33 ms
Bit rate : 1 904 kb/s
Width : 1 280 pixels
Height : 720 pixels
Display aspect ratio : 16:9
Frame rate mode : Constant
Frame rate : 30.000 FPS
Color space : YUV
Chroma subsampling : 4:2:0
Bit depth : 8 bits
Scan type : Progressive
Bits/(Pixel*Frame) : 0.069
Stream size : 1.58 GiB (93%)

AJPW 2021

Audio
ID : 2
Format : AAC LC
Format/Info : Advanced Audio
Codec ID : mp4a-40-2
Duration : 1 h 58 min
Bit rate mode : Variable
Bit rate : 125 kb/s
Maximum bit rate : 276 kb/s
Channel(s) : 2 channels
Channel layout : L R
Sampling rate : 44.1 kHz
Frame rate : 43.066 FPS
Compression mode : Lossy
Stream size : 106 MiB (6%)
mdhd_Duration : 7112203

AJPW 2021

Complete name : 2021.07.18.AJPW.Summer.Action.Series.2021.Day.4.mp4
Format : MPEG-4
Format profile : Base Media
Codec ID : isom
File size : 1.69 GiB
Duration : 1 h 58 min
Overall bit rate mode : Variable
Overall bit rate : 2 040 kb/s

AJPW 2021

Video
ID : 1
Format : AVC
Format/Info : Advanced Video
Duration : 1 h 58 min
Duration_FirstFrame : 33 ms
Bit rate : 1 904 kb/s
Width : 1 280 pixels
Height : 720 pixels
Display aspect ratio : 16:9
Frame rate mode : Constant
Frame rate : 30.000 FPS
Color space : YUV
Chroma subsampling : 4:2:0
Bit depth : 8 bits
Scan type : Progressive
Bits/(Pixel*Frame) : 0.069
Stream size : 1.58 GiB (93%)

AJPW 2021

Audio
ID : 2
Format : AAC LC
Format/Info : Advanced Audio
Codec ID : mp4a-40-2
Duration : 1 h 58 min
Bit rate mode : Variable
Bit rate : 125 kb/s
Maximum bit rate : 276 kb/s
Channel(s) : 2 channels
Channel layout : L R
Sampling rate : 44.1 kHz
Frame rate : 43.066 FPS
Compression mode : Lossy
Stream size : 106 MiB (6%)
mdhd_Duration : 7112203

AJPW 2021

Complete name : 2021.07.18.AJPW.Summer.Action.Series.2021.Day.4.mp4
Format : MPEG-4
Format profile : Base Media
Codec ID : isom
File size : 1.69 GiB
Duration : 1 h 58 min
Overall bit rate mode : Variable
Overall bit rate : 2 040 kb/s

AJPW 2021

Video
ID : 1
Format : AVC
Format/Info : Advanced Video
Duration : 1 h 58 min
Duration_FirstFrame : 33 ms
Bit rate : 1 904 kb/s
Width : 1 280 pixels
Height : 720 pixels
Display aspect ratio : 16:9
Frame rate mode : Constant
Frame rate : 30.000 FPS
Color space : YUV
Chroma subsampling : 4:2:0
Bit depth : 8 bits
Scan type : Progressive
Bits/(Pixel*Frame) : 0.069
Stream size : 1.58 GiB (93%)

AJPW 2021

Audio
ID : 2
Format : AAC LC
Format/Info : Advanced Audio
Codec ID : mp4a-40-2
Duration : 1 h 58 min
Bit rate mode : Variable
Bit rate : 125 kb/s
Maximum bit rate : 276 kb/s
Channel(s) : 2 channels
Channel layout : L R
Sampling rate : 44.1 kHz
Frame rate : 43.066 FPS
Compression mode : Lossy
Stream size : 106 MiB (6%)
mdhd_Duration : 7112203

AJPW 2021

Complete name : 2021.07.18.AJPW.Summer.Action.Series.2021.Day.4.mp4
Format : MPEG-4
Format profile : Base Media
Codec ID : isom
File size : 1.69 GiB
Duration : 1 h 58 min
Overall bit rate mode : Variable
Overall bit rate : 2 040 kb/s

AJPW 2021

Video
ID : 1
Format : AVC
Format/Info : Advanced Video
Duration : 1 h 58 min
Duration_FirstFrame : 33 ms
Bit rate : 1 904 kb/s
Width : 1 280 pixels
Height : 720 pixels
Display aspect ratio : 16:9
Frame rate mode : Constant
Frame rate : 30.000 FPS
Color space : YUV
Chroma subsampling : 4:2:0
Bit depth : 8 bits
Scan type : Progressive
Bits/(Pixel*Frame) : 0.069
Stream size : 1.58 GiB (93%)

AJPW 2021

Audio
ID : 2
Format : AAC LC
Format/Info : Advanced Audio
Codec ID : mp4a-40-2
Duration : 1 h 58 min
Bit rate mode : Variable
Bit rate : 125 kb/s
Maximum bit rate : 276 kb/s
Channel(s) : 2 channels
Channel layout : L R
Sampling rate : 44.1 kHz
Frame rate : 43.066 FPS
Compression mode : Lossy
Stream size : 106 MiB (6%)
mdhd_Duration : 7112203

AJPW 2021

 

[collapse]

 

 

https://dx-tv.com/

Leave a Reply

Your email address will not be published. Required fields are marked *

This site uses Akismet to reduce spam. Learn how your comment data is processed.

Previous Post
AJPW Summer-Action-Series 2021

AJPW Summer Action Series 2021 Day 3 Online Free

Next Post
AEW Fyter Fest Night 2

AEW Fyter Fest Night 2 Free Live 2021 July 21