AEW Rampage 2021 10 01 Full Show Replay

AEW Rampage 2021 10 01 1080p Full Show Replay DX-TV

AEW Rampage 2021

 AEW Rampage 2021

 

 

 

Download Links with premium High Speed
 


Dopapk

 

 

Show Links

 

 

https://shrt10.com/S5Wyq1CX
https://shrt10.com/AecfpQ9tW

 

 

 

 

 

Nitroflare

 

 

Show Links

 

 

https://shrt10.com/FPXKh0x
https://shrt10.com/2CV1hZU

 

 

 

 

Rapidgator

 

 

Show Links

 

 

https://shrt10.com/GfcRL55o5
https://shrt10.com/vyAAAcD

 

 

 

 

 

Uploaded
 

 

Show Links

 

 

https://shrt10.com/nE5jMbmZ
https://shrt10.com/TNzV73BHX

 

 

 

 

 

 

 

Watch AEW online

 

Server 1

 

 

 

 

watch now

 

 

 

 

Server-2

 

 

 

 

AEW Rampage 2021

 

 

 

|Server-3

 

 

 

 

watch now

 

 

Uploaded By Site DX-TV.com

 

 

Open Info Show

 

 

Complete name : AEW.Rampage.2021.10.01.TNT.1080p.WEB.h264-HEEL.mkv
Format : Matroska
Format version : Version 4
File size : 2.05 GiB
Duration : 50 min 25 s
Overall bit rate mode : Variable
Overall bit rate : 5 817 kb/s
Writing application : Lavf58.32.104

AEW Rampage 2021

Video
ID : 1
Format : AVC
Duration : 50 min 25 s
Bit rate mode : Variable
Bit rate : 5 317 kb/s
Nominal bit rate : 2 864 kb/s
Maximum bit rate : 8 000 kb/s
Width : 1 920 pixels
Height : 1 080 pixels
Display aspect ratio : 16:9
Frame rate mode : Constant
Frame rate : 59.940 (60000/1001) FPS
Standard : Component
Color space : YUV
Chroma subsampling : 4:2:0
Bit depth : 8 bits
Scan type : Progressive
Bits/(Pixel*Frame) : 0.043
Stream size : 1.87 GiB (91%)
Forced : No
Color range : Limited
Color primaries : BT.709
Transfer characteristics : BT.709
Matrix coefficients : BT.709

AEW Rampage 2021

Audio
ID : 2
Format : AC-3
Format/Info : Audio Coding 3
Commercial name : Dolby Digital
Codec ID : A_AC3
Duration : 50 min 25 s
Bit rate mode : Constant
Bit rate : 384 kb/s
Channel(s) : 6 channels
Channel layout : L R C LFE Ls Rs
Sampling rate : 48.0 kHz
Frame rate : 31.250 FPS (1536 SPF)
Bit depth : 32 bits
Compression mode : Lossy
Stream size : 138 MiB (7%)
Language : English
Service kind : Complete Main
Default : Yes
Forced : No

Complete name : AEW.Rampage.2021.10.01.HDTV.x264-NWCHD.mp4
Format : MPEG-4
Format profile : Base Media
Codec ID : isvc1/mp41)
File size : 559 MiB
Duration : 49 min 15 s
Overall bit rate : 1 587 kb/s

Video
ID : 1
Format : AVC
Duration : 49 min 15 s
Bit rate : 1 400 kb/s
Maximum bit rate : 1 386 kb/s
Width : 704 pixels
Height : 400 pixels
Display aspect ratio : 16:9
Frame rate mode : Variable
Frame rate : 29.970 (30000/1001) FPS
Minimum frame rate : 29.297 FPS
Maximum frame rate : 29.970 FPS
Color space : YUV
Chroma subsampling : 4:2:0
Bit depth : 8 bits
Scan type : Progressive
Bits/(Pixel*Frame) : 0.166
Stream size : 488 MiB (87%)
Color primaries : BT.709
Transfer characteristics : BT.709
Matrix coefficients : BT.709
Codec configuration box : avcC

AEW Rampage 2021

Audio
ID : 2
Format : AAC LC
Format/Info : Advanced
Codec ID : mp4a-40-2
Duration : 49 min 15 s
Bit rate mode : Constant
Bit rate : 192 kb/s
Channel(s) : 2 channels
Channel layout : L R
Sampling rate : 48.0 kHz
Frame rate : 46.875 FPS (1024 SPF)
Compression mode : Lossy
Stream size : 67.7 MiB (12%)
Title : Stereo
Language : English
Default : Yes
Alternate group : 1

 

 

https://dx-tv.com/

 

 

 

 

 

You May Also Like

Leave a Reply

Your email address will not be published. Required fields are marked *

This site uses Akismet to reduce spam. Learn how your comment data is processed.