AEW Full Gear Red Carpet Event 2020 11 07 Free Online

Watch AEW Full Gear Red Carpet Event 2020 11 07 Free Online DX-TV

AEW Full Gear Red Carpet Event 2020

 

 AEW Full Gear Red Carpet Event 2020

AEW Full Gear Red Carpet Event 2020 11 07 Free Online

 

Complete name : AEW Full Gear Red Carpet Event 2020 11 07 WEB DX-TV.com.mp4
Format : MPEG-4
Format profile : Base Media
Codec ID : isom
File size : 1.16 GiB
Duration : 57 min 35 s
Overall bit rate : 2 893 kb/s

Full Gear Red Carpet Event 2020

Video
ID : 1
Format : AVC
Format/Info : Advanced
Duration : 57 min 35 s
Bit rate : 2 760 kb/s
Width : 1 920 pixels
Height : 1 080 pixels
Display ratio : 16:9
Frame rate mode : Constant
Frame rate : 30.000 FPS
Color space : YUV
Chroma subsampling : 4:2:0
Bit depth : 8 bits
Scan type : Progressive
Bits/(Pixel*Frame) : 0.044
Stream size : 1.11 GiB (
Color range : Limited
Color primaries : BT.709
Transfer characteristics : BT.709
Matrix coefficients : BT.709
Codec configuration box : avcC

AEW Full Gear Red Carpet Event 2020

Audio
ID : 2
Format : AAC LC
Format/Info : Advanced Audio
Codec ID : mp4a-40-2
Duration : 57 min 34 s
Bit rate mode : Constant
Bit rate : 125 kb/s
Channel(s) : 2 channels
Channel layout : L R
Sampling rate : 48.0 kHz
Frame rate : 46.875 FPS
Compression mode : Lossy
Stream size : 51.6 MiB
Default : Yes
Alternate group : 1

AEW Full Gear Red Carpet Event 2020

AEW Full Gear Card:

  • Jon Moxley (c) vs. Eddie Kingston – I Quit Match for the AEW World Championship

  • FTR (Cash Wheeler and Dax Harwood) (c) (with Tully Blanchard) vs. The Young Bucks (Matt Jackson and Nick Jackson) – Tag Team Match for AEW Tag Team Championship

  • Cody (c) (with Arn Anderson) vs. Darby Allin – Singles Match for the TNT Championship

  • Hikaru Shida (c) vs. Nyla Rose (with Vickie Guerrero) – Singles Match for the AEW Women’s Championship

  • Adam Page vs. Kenny Omega – AEW World Championship Eliminator Tournament Finals Match

  • Chris Jericho vs. MJF (with Wardlow) – If MJF wins, he is allowed to join The Inner Circle

  • Matt Hardy vs. Sammy Guevara – The Elite Deletion Match

  • Orange Cassidy vs. John Silver – Singles Match

 

Full Gear Red Carpet Event 2020 11 07 Free Online

 

Watch online

 

 

Server 1

 

 

 

 

AEW Full Gear Red Carpet Event 2020

 

 

 

 

Server-2

 

 

 

watch now

 

 

 

Uploaded By Site DX-TV.com

 

 

Download Free Links with normal and high Speed [ more 14 hosts ]  

 

[su_expand more_text=”Show Hosts Info” less_text=”Close all Info” height=”30″ text_color=”#000000″ link_color=”#e25f8b” link_style=”button” more_icon=”icon: arrow-down” less_icon=”icon: arrow-up”]

 

 Full Gear Red Carpet Event 2020

hexupload.net – clicknupload.co – www.multiup.org – uptobox.com – anonfiles.com – userscloud.com –

dropapk.to alfafile.net – ddownload.com – rockfile.co – 1fichier.com – filedown.org – katfile.com – filerio.in

 

 

[/su_expand]

 

 

http://shrt10.com/sbJTkHZ
http://shrt10.com/or5aiav
http://shrt10.com/1YwmVBlJG
http://shrt10.com/w1atzi
http://shrt10.com/sDtMWKXyW
http://shrt10.com/PzApMtJd
http://shrt10.com/VF9wi
http://shrt10.com/8OJc4FV53

 

 

Download Links with premium High Speed   

 

 

 

 

dropapk.to

 

 

 

nitroflare.com

 

 

 

rapidgator.net

 

 

 

uploaded.net

 

 

 

uploadgig.com

 

 

 

 

 

dx-tv.com

 

urlfree.net

Leave a Reply

Your email address will not be published. Required fields are marked *

This site uses Akismet to reduce spam. Learn how your comment data is processed.