AEW Dynamite Special 9 22 2020 1080p Free

Watch AEW Dynamite Special 9 22 2020 1080p Free DX-TV

AEW Dynamite
 AEW Dynamite
 

 

AEW Dynamite Special 9 22 2020 1080p Free

 

Pulling the joker card for the Casino Battle Royale at ALL OUT 2020, Matt Sydal made a surprising AEW debut as the twenty-first entry that was nearly cut short by a slip and fall. But like a true professional, the world traveled Sydal recovered and fought his heart out alongside twenty other men to secure a future World Title opportunity.

AEW Dynamite

Unfortunately for Sydal, that title shot was not in the cards as Eddie Kingston would dump him out of the match just shy of the twenty-one minute mark , but not before Matt was able to eliminate a pair of men himself in The Butcher, and Sydal’s opponent for LATE NIGHT DYNAMITE, Shawn Spears.

Spears, despite a twelve for fourteen record in singles matches this year, has been frustrated time and again in his pursuit of an AEW championship. He was stopped by eventual champion Cody in the TNT Title Tournament, he was not included in the #1 Contender Battle Royale for that championship on May 27th, and despite the eight singles match winning streak that goes along with the aforementioned record, hasn’t cracked the Top Five Rankings a single time in 2020.

AEW Dynamite

To say he is an unhappy individual about all this would be quite an understatement, and getting removed from the Casino Battle Royale by a guy making his debut was rubbing salt in the wound. Well on Tuesday night, the man with the black glove will have an opportunity to right one of his perceived wrongs when Spears and Sydal collide on LATE NIGHT DYNAMITE.

A long time ago, in a former life, these two occupied the same Kentucky space at the same time, but that was over a decade ago and neither man is the same individual they were back then. They are two well-traveled wrestlers, world class athletes, with a tremendous depth of experience that makes this one intriguing match-up.

AEW Dynamite

Complete name : AEW.Dynamite.Special.9.22.2020.1080p.WEB.x264-DaShield.mp4
Format : MPEG-4
Format profile : Base Media
Codec ID : isom
File size : 1.38 GiB
Duration : 44 min 8 s
Overall bit rate mode : Variable
Overall bit rate : 4 468 kb/s
Writing application : Lavf58.45.100

AEW Dynamite

Video
ID : 1
Format : AVC
Format/Info : Advanced
Codec ID : avc1
Codec ID/Info : Advanced
Duration : 44 min 8 s
Bit rate : 4 363 kb/s
Nominal bit rate : 4 800 kb/s
Width : 1 920 pixels
Height : 1 080 pixels
Display aspect ratio : 16:9
Frame rate mode : Constant
rate : 29.970 (30000/1001) FPS
Color space : YUV
Chroma subsampling : 4:2:0
Bit depth : 8 bits
Scan type : Progressive
Bits/(Pixel*Frame) : 0.070
Stream size : 1.35 GiB (98%)
Writing library : x264 core 152

AEW Dynamite

Audio
ID : 2
Format : AAC LC
Format/Info : Advanced Audio
Codec ID : mp4a-40-2
Duration : 44 min 8 s
Bit rate mode : Variable
Bit rate : 96.0 kb/s
Maximum bit rate : 97.5 kb/s
Channel(s) : 2 channels
Channel layout : L R
Sampling rate : 48.0 kHz
Frame rate : 46.875 FPS (1024 SPF)
Compression mode : Lossy
Stream size : 30.4 MiB (2%)
Default : Yes
Alternate group : 1

 

 

 

 

AEW Dynamite Special 9 22 2020 1080p Free

 

 

Watch online

 

 

Server 1

 

 

 

 

watch now

 

 

 

 

Server-2

 

 

 

watch now

 

 

 

 

Server-3

 

 

 

AEW Dynamite

 

 

 

 

Uploaded By Site DX-TV.com

 

 

 

 

Download Free Links with normal and high Speed [ more 15 hosts ]  

 

 

 

 

http://shrt10.com/Kl2Vxksv
http://shrt10.com/p7nwa
http://shrt10.com/dhReH
http://shrt10.com/GMougFw
http://shrt10.com/Q2hZu6c1
http://shrt10.com/EzJdPm01o
http://shrt10.com/avKU0s3
http://shrt10.com/POrqAG
http://shrt10.com/lufKY10
http://shrt10.com/XAWXllB
http://shrt10.com/P8HBJnk
http://shrt10.com/R4qaqH
http://shrt10.com/FIjTl

 

 

 

Download Links with premium High Speed   

 

 

 

 

 

Keep2Share

 

 

 

uploaded.net

 

 

 

nitroflare.com

 

 

 

rapidgator.net

 

 

 

uploadgig.com

 

 

 

 

 

dx-tv.com

 

urlfree.net

Leave a Reply

Your email address will not be published. Required fields are marked *

This site uses Akismet to reduce spam. Learn how your comment data is processed.