AEW Dynamite Full Show Free 2020 09 23

Watch AEW Dynamite Full Show Free 2020 09 23 DX-TV

 

AEW Dynamite

 

 AEW Dynamite
 


 

 

AEW Dynamite Full Show Free 2020 09 23

 

Out next: Matt Hardy & Private Party—Isiah Kassidy and Marq Quen!

AEW Dynamite Full Show

Matt Hardy was in the ring, wondering aloud who had beat him with a bat last week. He said Chris Jericho was his prime suspect because .

it was too coincidental that after he was attacked, Jericho approached him with his baseball bat to check on him.

“Chris Jericho, the more things change, the more things stay the same,” said Matt Hardy.

Jericho’s “Judas” theme song played. The “Demo God” walked out with the Inner Circle, sans Sammy Guevara.

Jericho said Sammy wasn’t here tonight and no one knows when he’s coming back because of what Matt Hardy did to him at ALL OUT.

AEW Dynamite Full Show

“But guess what? I lied,” said Jericho, and then he called out Sammy Guevara.

“Trust me, if I was going to take out your leg with a bat, I would do it to your face,” said Chris Jericho.

“Is that what you want to do? If they’ll clear me, I’ll fight you, I’ll fight all of the Inner Circle,” said Matt Hardy.

Marq Quen interrupted Hardy and said, “Matt, we need you, so take all the time you need to heal, but I’m here.

” Quen said he gave Jericho a run for his money before and he’d do it again.

Isiah Kassidy grabbed the microphone and said, “I got this. Chris, I’m issuing you a challenge for next week, one on one.

 

AEW Dynamite Full Show

Complete name : AEW.Dynamite.2020.09.23.HDTV.x264-NWCHD.mp4
Format : MPEG-4
Format profile : Base Media
Codec ID : isom
File size : 1.16 GiB
Duration : 1 h 44 min
Overall bit rate : 1 590 kb/s
Writing application : Lavf58.27.103

AEW Dynamite Full Show 

Video
ID : 1
Format : AVC
Duration : 1 h 44 min
Bit rate : 1 400 kb/s
Width : 704 pixels
Height : 400 pixels
Display aspect ratio : 16:9
Original display aspect rat : 16:9
Frame rate mode : Variable
Frame rate : 29.970 (30000/1001) FPS
Minimum frame rate : 29.528 FPS
Maximum frame rate : 29.970 FPS
Color space : YUV
Chroma subsampling : 4:2:0
Bit depth : 8 bits
Scan type : Progressive
Bits/(Pixel*Frame) : 0.166
Stream size : 1.02 GiB (87%)
Color primaries : BT.709
Transfer characteristics : BT.709
Matrix coefficients : BT.709
Codec configuration box : avcC

AEW Dynamite Full Show 

Audio
ID : 2
Format : AAC LC
Format/Info : Advanced
Codec ID : mp4a-40-2
Duration : 1 h 44 min
Bit rate mode : Constant
Bit rate : 192 kb/s
Channel(s) : 2 channels
Channel layout : L R
Sampling rate : 48.0 kHz
Frame rate : 46.875 FPS (1024 SPF)
Compression mode : Lossy
Stream size : 143 MiB (12%)
Title : Stereo
Language : English
Default : Yes
Alternate group : 1

 

 

 

AEW Dynamite Full Show Free 2020 09 23

 

 

 

 

Watch online

 

 

 

 

 

Server 1

 

 

 

 

AEW Dynamite

 

 

 

 

Server-2

 

 

 

watch now

 

 

 

 

Server-3

 

 

 

watch now

 

 

 

 

Uploaded By Site DX-TV.com

 

 

 

 

Download Free Links with normal and high Speed [ more 15 hosts ]  

 

 

 

http://shrt10.com/IGeEH
http://shrt10.com/9hWNO5ms
http://shrt10.com/ZgVLjey
http://shrt10.com/3j6iTgN4A
http://shrt10.com/zFzvFvwNE
http://shrt10.com/mnbkpnkWJ
http://shrt10.com/Jx3mbx
http://shrt10.com/TOPlfuWI
http://shrt10.com/SaSG8DG
http://shrt10.com/YTwNpP6L1
http://shrt10.com/czA5oDke
http://shrt10.com/ZywHKN
http://shrt10.com/mFlF0Se

 

 

 

 

Download Links with premium High Speed   

 

 

 

 

 

Keep2Share

 

 

 

 

 

 

 

 

dx-tv.com

 

urlfree.net

Leave a Reply

Your email address will not be published. Required fields are marked *

This site uses Akismet to reduce spam. Learn how your comment data is processed.