AEW Dynamite Full Show 2020 10 07 1080p

Watch AEW Dynamite 2020 10 07 1080p DX-TV

AEW Dynamite Full Show

 

Free AEW Dynamite Live Stream

 

AEW Dynamite Full Show 2020 10 07 1080p

 

Complete name : AEW.Dynamite.2020.10.07.1080p.WEB.h264-HEEL.mp4
Format : MPEG-4
Format profile : Base Media
Codec ID : isom
File size : 3.51 GiB
Duration : 2 h 2 min
Overall bit rate mode : Variable
Overall bit rate : 4 110 kb/s
Writing application : Lavf58

AEW Dynamite Full Show

Video
ID : 1
Format : AVC
Duration : 2 h 2 min
Source duration : 2 h 2 min
Bit rate : 3 850 kb/s
Width : 1 920 pixels
Height : 1 080 pixels
Display aspect ratio : 16:9
Frame rate mode : Variable
Frame rate : 29.970 FPS
Color space : YUV
Chroma subsampling : 4:2:0
Bit depth : 8 bits
Scan type : Progressive
Bits/(Pixel*Frame) : 0.062
Stream size : 3.28 GiB (94%)
Source stream size : 3.28 GiB (94%)
mdhd_Duration : 7321515
Codec configuration box : avcC

AEW Dynamite Full Show

Audio #1
ID : 2
Format : AAC LC
Format/Info : Advanced Audio
Codec ID : mp4a-40-2
Duration : 2 h 2 min
Bit rate mode : Constant
Bit rate : 127 kb/s
Channel(s) : 2 channels
Channel layout : L R
Sampling rate : 48.0 kHz
Frame rate : 46.875 FPS
Compression mode : Lossy
Stream size : 111 MiB (3%)
Language : English
Default : Yes
Alternate group : 1

AEW Dynamite Full Show

Audio #2
ID : 3
Format : AAC LC
Format/Info : Advanced Audio
Codec ID : mp4a-40-2
Duration : 2 h 2 min
Bit rate mode : Variable
Bit rate : 127 kb/s
Maximum bit rate : 134 kb/s
Channel(s) : 2 channels
Channel layout : L R
Sampling rate : 44.1 kHz
Frame rate : 43.066 FPS
Compression mode : Lossy
Stream size : 111 MiB (3%)
Language : Spanish
Default : No
Alternate group : 1

AEW Dynamite Full Show

FTR executed a series of tandem offense to change the momentum of this match again! Jim Ross was very impressed with TH2’s resiliency .

and thought that perhaps FTR took them too lightly going into the match. Evans hit a front flipping ax kick on Dax,

but Dax plowed through with a lariat and then a tiger driver—but Evans kicked out at two!

Dax unperplexed Evans and then Cash followed up with a splash off the top, and it was good enough to pin Evans!

AEW Dynamite Full Show

The Bucks were shown again backstage watching the match off the monitor. They saw the cameraman filming them and superkicked him!

Best Friends—Chuck Taylor and Trent—walked out taunting FTR. They were wearing shirts that featured FTR dressed as hot dogs.

“As comedy backyard wrestlers, what we’re trying to say, is that you guys are weenies,” said Trent.

“But what’s not a joke, is that we are the number one contenders,” said Trent.

It was announced that Best Friends would be challenging for FTR’s gold next week, per Tony Khan!

 

AEW Dynamite Full Show 2020 10 07 1080p

 

 

Watch online

 

 

Server 1

 

 

 

 

watch nowAEW Dynamite Full Show

 

 

 

 

Server-2

 

 

 

watch now

 

 

 

 

Server-3

 

 

 

AEW Dynamite Full Show

 

 

 

 

Uploaded By Site DX-TV.com

 

 

 

 

Download Free Links with normal and high Speed [ more 14 hosts ]  

 

 

 

http://shrt10.com/d8RvhvHm
http://shrt10.com/msfLbe
http://shrt10.com/4s9KvmTG
http://shrt10.com/unuW0
http://shrt10.com/Qr0fuq7Hm
http://shrt10.com/jQNxOu6
http://shrt10.com/FeBsIQC
http://shrt10.com/QIXwGm47
http://shrt10.com/7G8THhS
http://shrt10.com/STlKnF

 

 

 

 

Download Links with premium High Speed   

 

 

nitroflare.com

 

 

 

rapidgator.net

 

 

 

uploaded.net

 

 

 

uploadgig.com

 

 

 

 

 

dx-tv.com

 

urlfree.net

Leave a Reply

Your email address will not be published. Required fields are marked *

This site uses Akismet to reduce spam. Learn how your comment data is processed.