AEW Dynamite Free Online 2020 09 30

Watch AEW Dynamite 2020 09 30 HDTV NWCHD DX-TV

 

AEW Dynamite Free Online

 

 AEW Dynamite Free Online
 


 

 

AEW Dynamite Free Online 2020 09 30

 

 

Almost seven weeks ago fans witnessed the decimation of The Nightmare Family, as well as the end of Cody’s historic run as the first ever TNT Champion, at the hands of Mr. Brodie Lee and The Dark Order. It was a brutal assault that sent “The American Nightmare” out of the arena on a stretcher, left Arn Anderson laid out, and Brandi Rhodes choked out by Anna Jay.

Although Brandi would return to the AEW stage in short order, even fighting Anna Jay in a losing effort on LATE NIGHT DYNAMITE, Cody had not been heard from the entire time. That is until after Brodie bested Orange Cassidy in his second defense of the TNT Championship, and KINGDOM reverberated through Daily’s Place to herald the return of “The American Nightmare”!

AEW Dynamite Free Online

Clad in all black, with his bright blonde hair also benighted, the figurehead of The Nightmare Family went into all out assault mode on The Dark Order while their standard bearer fled from the scene to escape Cody’s fury. So embrace the irony of Lee then issuing the following challenge to the former TNT Champion as if he was the one who needed to be entrapped to compete:

AEW Dynamite Free Online

 

Complete name : AEW.Dynamite.2020.09.30.720p.HDTV.x264-NWCHD.mp4
Format : MPEG-4
Format profile : Base Media
Codec ID : isom
File size : 3.43 GiB
Duration : 1 h 44 min
Overall bit rate : 4 678 kb/s
Writing application : Lavf58 

AEW Dynamite Free Online

Video
ID : 1
Format : AVC
Duration : 1 h 44 min
Bit rate : 4 500 kb/s
Width : 1 280 pixels
Height : 720 pixels
aspect ratio : 16:9
Frame rate mode : Variable
Frame rate : 29.970 FPS
Color space : YUV
Chroma subsampling : 4:2:0
Bit depth : 8 bits
Scan type : Progressive
Bits/(Pixel*Frame) : 0.163
Stream size : 3.28 GiB (96%)
Color primaries : BT.709
Transfer characteristics : BT.709
Matrix coefficients : BT.709
Codec configuration box : avcC

AEW Dynamite Free Online

Audio
ID : 2
Format : AAC LC
Format/Info : Advanced Audio
Codec ID : mp4a-40-2
Duration : 1 h 44 min
Bit rate mode : Constant
Bit rate : 192 kb/s
Channel(s) : 2 channels
Channel layout : L R
Sampling rate : 48.0 kHz
Frame rate : 46.875 FPS (1024 SPF)
Compression mode : Lossy
Stream size : 144 MiB (4%)
Title : Stereo
Language : English
Default : Yes
Alternate group : 1

 

 

 

AEW Dynamite Free Online 2020 09 30

 

 

 

 

Watch online

 

 

 

 

 

Server 1

 

 

 

 

AEW Dynamite Free Online

 

 

 

 

Server-2

 

 

 

watch now

 

 

 

 

Server-3

 

 

 

watch now

 

 

 

 

Uploaded By Site DX-TV.com

 

 

 

 

Download Free Links with normal and high Speed [ more 15 hosts ]  

 

 

 

 

http://shrt10.com/7AtvM
http://shrt10.com/VxaREZn
http://shrt10.com/1eXoHVb
http://shrt10.com/Qc0zJpU
http://shrt10.com/uQEweP
http://shrt10.com/Lk91syGy
http://shrt10.com/bZ7kTr3H
http://shrt10.com/NREkdOaO

 

 

 

Download Links with premium High Speed   

 

 

 

 

nitroflare.com

 

 

 

rapidgator.net

 

 

 

uploaded.net

 

 

 

uploadgig.com

 

 

 

 

 

dx-tv.com

 

urlfree.net

Leave a Reply

Your email address will not be published. Required fields are marked *

This site uses Akismet to reduce spam. Learn how your comment data is processed.