AEW Dynamite Free Online 2020 09 23 1080p

Watch AEW Dynamite Free Online 2020 09 23 1080p DX-TV

 

AEW Dynamite Free Online

 

 AEW Dynamite
 


 

AEW Dynamite 2020 09 23 1080p

 

TNT Champion “The Exalted One” of the Dark Order

Mr Brodie Lee vs. “Freshly Squeezed” Orange Cassidy!

“This is a big dangerous man who is obviously on a roll,” said Jim Ross of Brodie Lee.

“Orange isn’t about to be intimidated,” replied Schiavone, as Orange rolled into the ring.

The Dark Order surrounded the ring.

AEW Dynamite Free Online

Anna Jay jumped on the ring apron and Orange put his aviators on her. Mr. Brodie Lee walked over and removed them from her face.

He chucked the sunglasses into the crowd. Cassidy dropkicked Mr. Brodie Lee to the outside.

Cassidy tried for a tope suicida (with his hands in his pockets, of course) but the Dark Order minions caught him!

AEW Dynamite Mr. Brodie Lee returned to the ring, got a running start, and rocketed himself to the outside onto Orange Cassidy!

AEW Dynamite Free Online

Brodie hit a senton onto Orange for a near fall. Orange tried for a swinging DDT,

but Brodie reversed it with the Bossman slam! Brodie used a half and half suplex to toss Orange Cassidy halfway across the ring!

He repeated it!

“Cassidy can’t even keep his feet underneath him. Or is this a ploy?” asked Excalibur. AEW Dynamite

Brodie set up Orange for the discuss lariat but Orange fell down again.

“He is so elusive, is Cassidy,” said Schiavone.

AEW Dynamite Free Online

Orange Cassidy used two elbow suicidas on Brodie! Orange used a stunner and then a diving DDT on “the Exalted One”!

AEW Dynamite Orange hit the ropes and then used the running PK, another DDT, and the Air Raid on Mr. Brodie Lee, but Brodie kicked out!

John Silver distracted Orange Cassidy long enough for Mr. Brodie Lee to nearly decapitate Orange Cassidy with the discuss lariat! Mr. Brodie Lee won via pin!

The lights went dark in the arena! When they came back on, “The American Nightmare” Cody appeared! He single-handled dismantled the Dark Order minions in the ring!

As Cody was unleashing hell, Mr. Brodie Lee managed to retreat from Cody’s surprise assault.

 

AEW Dynamite Free Online

Complete name : AEW.Dynamite.2020.09.23.1080p.WEB.h264-HEEL.mp4
Format : MPEG-4
Format profile : Base Media
Codec ID : isom
File size : 3.49 GiB
Duration : 2 h 0 min
Overall bit rate : 4 156 kb/s
Writing application : Lavf58.43.100

 Dynamite

Video
ID : 1
Format : AVC
Duration : 2 h 0 min
Source duration : 2 h 0 min
Bit rate : 3 888 kb/s
Width : 1 920 pixels
Height : 1 080 pixels
Display aspect ratio : 16:9
Frame rate mode : Variable
Frame rate : 29.970 FPS
Color space : YUV
Chroma subsampling : 4:2:0
Bit depth : 8 bits
Scan type : Progressive
Bits/(Pixel*Frame) : 0.063
Stream size : 3.27 GiB (94%)
Source stream size : 3.27 GiB (94%)
mdhd_Duration : 7221214
Codec configuration box : avcC

AEW Dynamite

Audio #1
ID : 2
Format : AAC LC
Format/Info : Advanced
Codec ID : mp4a-40-2
Duration : 2 h 0 min
Bit rate mode : Constant
Bit rate : 128 kb/s
Channel(s) : 2 channels
Channel layout : L R
Sampling rate : 48.0 kHz
Frame rate : 46.875 FPS (1024 SPF)
Compression mode : Lossy
Stream size : 110 MiB (3%)
Language : English
Default : Yes
Alternate group : 1

Audio #2
ID : 3
Format : AAC LC
Format/Info : Advanced
Codec ID : mp4a-40-2
Duration : 2 h 0 min
Bit rate mode : Constant
Bit rate : 128 kb/s
Channel(s) : 2 channels
Channel layout : L R
Sampling rate : 44.1 kHz
Frame rate : 43.066 FPS (1024 SPF)
Compression mode : Lossy
Stream size : 111 MiB (3%)
Language : Spanish
Default : No
Alternate group : 1

 

 

 

AEW Dynamite 2020 09 23 1080p

 

 

 

 

Watch online

 

 

 

 

 

Server 1

 

 

 

 

AEW Dynamite

 

 

 

 

Server-2

 

 

 

watch now

 

 

 

 

Server-3

 

 

 

watch now

 

 

 

 

Uploaded By Site DX-TV.com

 

 

 

 

Download Free Links with normal and high Speed [ more 15 hosts ]  

 

 

 

http://shrt10.com/L1RFWum
http://shrt10.com/qXYXqYV
http://shrt10.com/ZgLiZowZ
http://shrt10.com/pzFiAeRH
http://shrt10.com/TaKCoDOL0
http://shrt10.com/tcUF7wH
http://shrt10.com/RmClyHjV
http://shrt10.com/44prbUN
http://shrt10.com/95OnG
http://shrt10.com/CRYDlrsu

 

 

 

 

Download Links with premium High Speed   

 

 

 

 

 

Keep2Share

 

 

 

uploaded.net

 

 

 

nitroflare.com

 

 

 

rapidgator.net

 

 

 

uploadgig.com

 

 

 

 

 

dx-tv.com

 

urlfree.net

Leave a Reply

Your email address will not be published. Required fields are marked *

This site uses Akismet to reduce spam. Learn how your comment data is processed.