AEW Dynamite 30 12 2020 Full Show Replay 720p DX-TV

AEW Dynamite 30 12 2020 Brodie Lee Tribute HDTV NWCHD /720p DX-TV

AEW Dynamite 30 12 

 AEW Dynamite 30 12 2020

 

Download Links with premium High Speed   

 

 

dropapk.to

http://shrt10.com/UeDgLOQH
http://shrt10.com/Ty9BGwA

 

 

nitroflare.com

http://shrt10.com/KUiCGs
http://shrt10.com/ayGuU8w59

 

 

rapidgator.net

Down Now will add links soon after site working

 

 

uploaded.net

http://shrt10.com/HcRjs
http://shrt10.com/JBaVq2

 

 

uploadgig.com

http://shrt10.com/Ne4gGnMn
http://shrt10.com/2FLoU8U

 

 

 

Watch AEW Dynamite online

 

Server 1

 

 

 

 

AEW Dynamite 30 12 2020

 

 

 

 

Server-2

 

 

 

 

watch now

 

 

Uploaded By Site DX-TV.com

 

 

Complete name : AEW.Dynamite.2020.12.30.Brodie.Lee.Tribute.HDTV.x264-NWCHD.mp4
Format : MPEG-4
Format profile : Base Media
Codec ID : isom
File size : 1.15 GiB
Duration : 1 h 43 min
Overall bit rate : 1 585 kb/s
Writing application : Lavf58.27.103

AEW Dynamite 30 12  

Video
ID : 1
Format : AVC
Format profile : [email protected]
Duration : 1 h 43 min
Bit rate : 1 400 kb/s
Width : 704 pixels
Height : 400 pixels
Display aspect ratio : 16:9
Frame rate mode : Variable
Frame rate : 29.970 (30000/1001) FPS
Minimum frame rate : 29.126 FPS
Maximum frame rate : 29.970 FPS
Color space : YUV
Chroma subsampling : 4:2:0
Bit depth : 8 bits
Scan type : Progressive
Bits/(Pixel*Frame) : 0.166
Stream size : 1.00 GiB (87%)
Color range : Limited
Color primaries : BT.709
Transfer characteristics : BT.709
Matrix coefficients : BT.709
Codec configuration box : avc

AEW Dynamite 30 

Audio
ID : 2
Format : AAC LC
Format/Info : Advanced Audio
Codec ID : mp4a-40-2
Duration : 1 h 43 min
Bit rate mode : Constant
Bit rate : 192 kb/s
Channel(s) : 2 channels
Channel layout : L R
Sampling rate : 48.0 kHz
Frame rate : 46.875 FPS (1024 SPF)
Compression mode : Lossy
Stream size : 142 MiB (12%)
Title : Stereo
Language : English
Default : Yes
Alternate group : 1

AEW Dynamite  

Complete name : AEW.Dynamite.2020.12.30.Brodie.Lee.Tribute.720p.HDTV.x264-NWCHD.mp4
Format : MPEG-4
Format profile : Base Media
Codec ID : isom
File size : 3.39 GiB
Duration : 1 h 43 min
Overall bit rate : 4 685 kb/s
Writing application : Lavf58.27.103

Video
ID : 1
Format : AVC
Duration : 1 h 43 min
Bit rate : 4 500 kb/s
Width : 1 280 pixels
Height : 720 pixels
Display aspect ratio : 16:9
Frame rate mode : Variable
Frame rate : 29.970 (30000/1001) FPS
Color space : YUV
Chroma subsampling : 4:2:0
Bit depth : 8 bits
Scan type : Progressive
Bits/(Pixel*Frame) : 0.163
Stream size : 3.25 GiB (96%)
Color primaries : BT.709
Transfer characteristics : BT.709
Matrix coefficients : BT.709
Codec configuration box : avc

AEW Dynamite 30 

Audio
ID : 2
Format : AAC LC
Format/Info : Advanced Audio
Codec ID : mp4a-40-2
Duration : 1 h 43 min
Bit rate mode : Constant
Bit rate : 192 kb/s
Channel(s) : 2 channels
Channel layout : L R
Sampling rate : 48.0 kHz
Frame rate : 46.875 FPS (1024 SPF)
Compression mode : Lossy
Stream size : 142 MiB (4%)
Title : Stereo
Language : English
Default : Yes
Alternate group : 1

AEW Dynamite 30 

 

https://dx-tv.com/

You May Also Like

Leave a Reply

Your email address will not be published. Required fields are marked *

This site uses Akismet to reduce spam. Learn how your comment data is processed.