AEW Dynamite 2021 01 27 720p /1080p DX-TV

AEW Dynamite 2021 01 27 720p /1080p HDTV NWCHD DX-TV

AEW Dynamite 2021 01 27

 AEW Dynamite 2021 01 27

 

Download Links with premium High Speed   

 

 

dropapk.to

http://shrt10.com/0vnyAqEob
http://shrt10.com/lcRq0Ni
http://shrt10.com/dF81R

 

 

nitroflare.com

http://shrt10.com/G1ZdI0ox
http://shrt10.com/Gdgf2h5Nu
http://shrt10.com/B5E3K

 

 

rapidgator.net

http://shrt10.com/7ZDlqWL
http://shrt10.com/cNuzaEU
http://shrt10.com/Rv7Op

 

 

uploaded.net

http://shrt10.com/Z9e4a
http://shrt10.com/i8Ac6CB
http://shrt10.com/jlHB9Rw

 

 

 

Watch AEW Dynamite online

 

Server 1

 

 

 

 

watch now

 

 

 

 

Server-2

 

 

 

 

watch now

 

 

Uploaded By Site DX-TV.com

 

 

Complete name : AEW.Dynamite.2021.01.27.HDTV.x264-NWCHD.mp4
Format : MPEG-4
Format profile : Base Media
Codec ID : isom
File size : 1.17 GiB
Duration : 1 h 44 min
Overall bit rate : 1 597 kb/s
Writing application : Lavf58.27.103

AEW Dynamite

Video
ID : 1
Format : AVC
Format/Info : Advanced Video
Duration : 1 h 44 min
Bit rate : 1 400 kb/s
Width : 704 pixels
Height : 400 pixels
Display aspect ratio : 16:9
Frame rate mode : Variable
Frame rate : 29.970 (30000/1001) FPS
Minimum frame rate : 29.155 FPS
Maximum frame rate : 29.970 FPS
Color space : YUV
Chroma subsampling : 4:2:0
Bit depth : 8 bits
Scan type : Progressive
Bits/(Pixel*Frame) : 0.166
Stream size : 1.02 GiB (87%)
Color primaries : BT.709
Transfer characteristics : BT.709
Matrix coefficients : BT.709
Codec configuration box : avc

AEW Dynamite

Audio
ID : 2
Format : AAC LC
Format/Info : Advanced Audio
Codec ID : mp4a-40-2
Duration : 1 h 44 min
Bit rate mode : Constant
Bit rate : 192 kb/s
Channel(s) : 2 channels
Channel layout : L R
Sampling rate : 48.0 kHz
Frame rate : 46.875 FPS (1024 SPF)
Compression mode : Lossy
Stream size : 143 MiB (12%)
Title : Stereo
Language : English
Default : Yes
Alternate group : 1

Complete name : AEW.Dynamite.2021.01.27.1080p.WEB.h264-HEEL.mp4
Format : MPEG-4
Format profile : Base Media
Codec ID : isom
File size : 3.92 GiB
Duration : 2 h 0 min
Overall bit rate : 4 672 kb/s
Writing application : Lavf58.63.100

AEW Dynamite

Video
ID : 1
Format : AVC
Format/Info : Advanced Video
Duration : 1 h 59 min
Bit rate : 4 438 kb/s
Nominal bit rate : 4 800 kb/s
Width : 1 920 pixels
Height : 1 080 pixels
Display aspect ratio : 16:9
Frame rate mode : Constant
Frame rate : 29.970 (30000/1001) FPS
Color space : YUV
Chroma subsampling : 4:2:0
Bit depth : 8 bits
Scan type : Progressive
Bits/(Pixel*Frame) : 0.071
Stream size : 3.72 GiB (95%)
Writing library : x264 core 152

AEW Dynamite

Audio #1
ID : 2
Format : AAC LC
Format/Info : Advanced Audio
Codec ID : mp4a-40-2
Duration : 2 h 0 min
Bit rate mode : Constant
Bit rate : 96.0 kb/s
Channel(s) : 2 channels
Channel layout : L R
Sampling rate : 48.0 kHz
Frame rate : 46.875 FPS (1024 SPF)
Compression mode : Lossy
Stream size : 82.8 MiB (2%)
Language : English
Default : Yes
Alternate group : 1

Audio #2
ID : 3
Format : AAC LC
Format/Info : Advanced Audio
Codec ID : mp4a-40-2
Duration : 2 h 0 min
Bit rate mode : Constant
Bit rate : 129 kb/s
Channel(s) : 2 channels
Channel layout : L R
Sampling rate : 48.0 kHz
Frame rate : 46.875 FPS (1024 SPF)
Compression mode : Lossy
Stream size : 110 MiB (3%)
Language : Spanish
Default : No
Alternate group : 1

Complete name : AEW.Dynamite.2021.01.27.720p.HDTV.x264-NWCHD.mp4
Format : MPEG-4
Format profile : Base Media
Codec ID : isom
File size : 3.44 GiB
Duration : 1 h 44 min
Overall bit rate : 4 708 kb/s
Writing application : Lavf58.51.101

AEW Dynamite

Video
ID : 1
Format : AVC
Format/Info : Advanced Video
Duration : 1 h 44 min
Bit rate : 4 500 kb/s
Width : 1 280 pixels
Height : 720 pixels
Display aspect ratio : 16:9
Frame rate mode : Variable
Frame rate : 29.970 (30000/1001) FPS
Minimum frame rate : 29.155 FPS
Maximum frame rate : 29.970 FPS
Color space : YUV
Chroma subsampling : 4:2:0
Bit depth : 8 bits
Scan type : Progressive
Bits/(Pixel*Frame) : 0.163
Stream size : 3.29 GiB (96%)
Color primaries : BT.709
Transfer characteristics : BT.709
Matrix coefficients : BT.709
Codec configuration box : avc

AEW Dynamite

Audio
ID : 2
Format : AAC LC
Format/Info : Advanced Audio
Codec ID : mp4a-40-2
Duration : 1 h 44 min
Bit rate mode : Constant
Bit rate : 192 kb/s
Channel(s) : 2 channels
Channel layout : L R
Sampling rate : 48.0 kHz
Frame rate : 46.875 FPS (1024 SPF)
Compression mode : Lossy
Stream size : 143 MiB (4%)
Title : Stereo
Language : English
Default : Yes
Alternate group : 1

AEW Dynamite 2021 01 27

 

https://dx-tv.com/

You May Also Like

Leave a Reply

Your email address will not be published. Required fields are marked *

This site uses Akismet to reduce spam. Learn how your comment data is processed.