AEW Dynamite 2020 03 25 720p HEEL

Watch AEW Dynamite 2020 03 25 720p HEEL DX-TV

AEW

 AEW

 

 

AEW Dynamite 2020 03 25 720p HEEL

 

Complete name : AEW.Dynamite.2020.03.25.720p.WEB.h264-HEEL.mp4
Format : MPEG-4
Format profile : Base Media
Codec ID : isom AEW
File size : 1.63 GiB
Duration : 2 h 0 min
Overall bit rate : 1 939 kb/s
Writing application : AEW

Video
ID : 1
Format : AVC
Duration : 2 h 0 min
Bit rate : 1 833 kb/s
Width : 1 280 pixels
Height : 720 pixels
Display aspect ratio : 16:9
Frame rate mode : AEW
Frame rate : 29.970 (30000/1001) FPS
Minimum frame rate : 29.412 FPS
Maximum frame rate : 30.303 FPS
Color space : YUV
Chroma subsampling : 4:2:0
Bit depth : 8 bits
Scan type : AEW
Bits/(Pixel*Frame) : 0.066
Stream size : 1.54 GiB (95%)
Codec configuration box : AEW

Audio
ID : 2
Format : AAC LC
Format/Info : AEW
Codec ID : mp4a-40-2
Duration : 2 h 0 min
Bit rate mode : AEW
Bit rate : 96.0 kb/s
Channel(s) : 2 channels
Channel layout : L R
Sampling rate : 48.0 kHz
Frame rate : 46.875 FPS (1024 SPF)
Compression mode : Lossy
Stream size : 82.4 MiB (5%)
Default : AEW
Alternate group : 1

 

 

 

Watch online

 

 

Server 1

 

 

 

 

watch now

 

 

 

 

Server 2

 

 

 

watch now

 

 

 

AEW Dynamite 2020 03 25 720p HEEL

 

 

Uploaded By Site DX-TV.com

 

 

Download with Free Links 

 

 

1fichier.com

 

 

DDL.to

 

 

rockfile.co

 

 

 

Download with premium account Links 

 

 

Keep2Share

 

 

mixdrop.co

 

 

alfafile.net

 

 

nitroflare.com

 

 

rapidgator.net

 

 

uploadgig.com

 

 

 

dx-tv.com

 

urlfree.net

Leave a Reply

Your email address will not be published. Required fields are marked *

This site uses Akismet to reduce spam. Learn how your comment data is processed.

%d bloggers like this: