AEW Dynamite 2020 03 25 720p HDTV

Watch AEW Dynamite 2020 03 25 720p HDTV NWCHD DX-TV

 

AEW

 AEW

 

 

AEW Dynamite 2020 03 25 720p HDTV

 

Complete name : AEW.Dynamite.2020.03.25.720p.HDTV.x264-NWCHD.mp4
Format : MPEG-4
Format profile : Base Media
Codec ID : AEW
File size : 3.08 GiB
Duration : 1 h 34 min
Overall bit rate : 4 686 kb/s
Writing application : AEW

Video
ID : 1
Format : AVC
Format/Info : AEW
Codec ID : avc1
Codec ID/Info : AAEW
Duration : 1 h 34 min
Bit rate : 4 500 kb/s
Width : 1 280 pixels
Height : 720 pixels
Display aspect ratio : 16:9
Frame rate mode : Variable
Frame rate : 29.970 (30000/1001) FPS
Minimum frame rate : 29.155 FPS
Maximum frame rate : 29.970 FPS
Color space : AEW
Chroma subsampling : 4:2:0
Bit depth : 8 bits
Scan type : AEW
Bits/(Pixel*Frame) : 0.163
Stream size : 2.95 GiB (96%)
Color primaries : BT.709
Transfer characteristics : BT.709
Matrix coefficients : BT.709
Codec configuration box : avcC

Audio
ID : 2
Format : AAC LC
Format/Info : AEW
Codec ID : mp4a-40-2
Duration : 1 h 34 min
Bit rate mode : Constant
Bit rate : 192 kb/s
Channel(s) : 2 channels
Channel layout : L R
Sampling rate : 48.0 kHz
Frame rate : 46.875 FPS (1024 SPF)
Compression mode : Lossy
Stream size : 129 MiB (4%)
Title : Stereo
Default : Yes
Alternate group : AEW

 

 

 

Watch online

 

 

Server 1

 

 

 

 

watch now

 

 

 

 

Server 2

 

 

 

watch now

 

 

 

AEW Dynamite 2020 03 25 720p HDTV

 

 

Uploaded By Site DX-TV.com

 

 

Download with Free Links 

 

 

1fichier.com

https://shrt10.com/0Jp0bef
https://shrt10.com/pN27z9j

 

DDL.to

https://shrt10.com/9FJRL
https://shrt10.com/flmAWm

 

rockfile.co

https://shrt10.com/gYZvpRf
https://shrt10.com/Lsfwfmc

 

 

Download with premium account Links 

 

 

Keep2Share

 

 

mixdrop.co

 

 

alfafile.net

 

 

nitroflare.com

 

 

rapidgator.net

 

 

uploadgig.com

 

 

 

dx-tv.com

 

urlfree.net

Leave a Reply

Your email address will not be published. Required fields are marked *

This site uses Akismet to reduce spam. Learn how your comment data is processed.

%d bloggers like this: