AEW Dynamite 18 November 2020 720p Full Show Online

Watch AEW Dynamite 2020 11 18 720p HDTV NWCHD DX-TV

AEW Dynamite 18 November 2020

 

 AEW Dynamite 18 November 2020

 

AEW Dynamite 18 November 2020 720p Full Show Online

 

 

[su_expand more_text=”Show More Info” less_text=”Close all Info” height=”30″ text_color=”#000000″ link_color=”#e25f8b” link_style=”button” more_icon=”icon: arrow-down” less_icon=”icon: arrow-up”]

 

Complete name : AEW.Dynamite.2020.11.18.720p.HDTV.x264-NWCHD.mp4
Format : MPEG-4
Format profile : Base Media
Codec ID : isom
File size : 3.46 GiB
Duration : 1 h 45 min
Overall bit rate : 4 692 kb/s
Writing application : Lavf58.51

AEW Dynamite 18 November 2020

Video
ID : 1
Format : AVC
Duration : 1 h 45 min
Bit rate : 4 500 kb/s
Width : 1 280 pixels
Height : 720 pixels
Display aspect ratio : 16:9
Frame rate mode : Variable
Frame rate : 29.970 FPS
Color space : YUV
Chroma subsampling : 4:2:0
Bit depth : 8 bits
Scan type : Progressive
Bits/(Pixel*Frame) : 0.163
Stream size : 3.32 GiB
Color primaries : BT.709
Transfer characteristics : BT.709
Matrix coefficients : BT.709
Codec configuration box : avc

AEW Dynamite 18 November 2020

Audio
ID : 2
Format : AAC LC
Format/Info : Advanced Audio
Codec ID : mp4a-40-2
Duration : 1 h 45 min
Bit rate mode : Constant
Bit rate : 192 kb/s
Channel(s) : 2 channels
Channel layout : L R
Sampling rate : 48.0 kHz
Frame rate : 46.875 FPS
Compression mode : Lossy
Stream size : 145 MiB
Title : Stereo
Language : English
Default : Yes
Alternate group : 1

AEW Dynamite 18 November 2020

In the days following, the war of words would continue to escalate via social media with both Taz .

and Cody sharing some thoughts heading into this titanic tag team tussle:

It’s pretty clear where Cody stands on the subject of that FTW Title.

and it would not be completely off-base to pick up on the former two-time TNT Champion verbally positioning the two members of Team Taz against one another.

Cody knows the game of psychological warfare, of looking three moves ahead, just as well as he knows the one inside the squared circle. And Darby,

well Darby probably doesn’t get enough credit in that regards. His videos aren’t done just to show off the production skills and creativity.

they are part of the game before the game, the prelims if you will,

aimed to get in someone’s head and throw the opponent off before the sounds of “I FELL” even blare out at Daily’s Place.

AEW Dynamite 18 November 2020

Team Taz, by contrast, is straight in your face and, quite clearly, behind your back when the opportunity arises.

Psychological warfare is not part of the playbook,

although Taz’s history shows he is capable, just a straight up beating to send the message required.

This Wednesday night, these four men will go at each other to settle a score in tag team fashion! Darby and Cody,

in their two outings as a team, are batting .

500 while Team Taz has a zero in the win column with one tag team outing under their belt. That bout, coincidentally.

was against Darby as well albeit with Jon Moxley as his partner for that Tornado Tag Team affair.

Who will assert their dominance in the main event of DYNAMITE this week?

Who will step up to be Darby’s first challenger for the TNT Title? Tune in Wednesday night to find out!

 

AEW Dynamite 18 November 2020 720p Full Show Online

 

 

[/su_expand]

 

 

Watch online

 

 

Server 1

 

 

 

 

 

 

 

AEW Dynamite 18 November 2020

Server-2

 

 

 

 

 

 

 

 

Server–3

 

 

 

 

 

 

 

 

Uploaded By Site DX-TV.com

AEW  18 November 2020

 

Download Links with premium High Speed   

 

 

 

 

dropapk.to

 

 

 

nitroflare.com

 

 

 

rapidgator.net

 

 

 

uploaded.net

 

 

 

uploadgig.com

 

 

 

 

 

dx-tv.com

 

urlfree.net

You May Also Like

Leave a Reply

Your email address will not be published. Required fields are marked *

This site uses Akismet to reduce spam. Learn how your comment data is processed.