AEW Double Or Nothing 2021 Pre Show The Buy In

AEW Double Or Nothing 2021 Pre Show The Buy In DX-TV

AEW Double Or Nothing 2021 Pre Show

 AEW Double Or Nothing 2021 Pre Show

 

 

 

Download Links with High Speed


Dopapk

 

 

Show Links

 

http://shrt10.com/5iF8Gy1

 

[collapse]

 

 

Nitroflare

 

 

Show Links

 

http://shrt10.com/vu9hM

 

[collapse]

 

 

Rapidgator

 

 

Show Links

 

http://shrt10.com/fFYND

 

[collapse]

 

 

Uploaded

 

 

Show Links

 

http://shrt10.com/ItumbMK8W

 

[collapse]

 

 

Watch online

 

Server 1

 

 

 

 

AEW Double Or Nothing 2021 Pre Show

 

 

 

 

Server-2

 

 

 

 

watch now

 

 

 

|Server-4

 

 

 

 

watch now

 

 

Uploaded By Site DX-TV.com

 

 

Show Info This Show

AEW Double Or Nothing 2021 Pre Show

 

Complete name : AEW.Double.Or.Nothing.2021.Pre.Show.The.Buy.In.FITE.1080p.WEBRip.h264-TJ.mp4
Format : MPEG-4
Format profile : Base Media
Codec ID : isom
File size : 1.01 GiB
Duration : 30 min 33 s
Overall bit rate mode : Variable
Overall bit rate : 4 721 kb/s

Video
ID : 1
Format : AVC
Format/Info : Advanced Video
Duration : 30 min 33 s
Bit rate : 4 586 kb/s
Width : 1 920 pixels
Height : 1 080 pixels
Display aspect ratio : 16:9
Frame rate mode : Constant
Frame rate : 29.970 (30000/1001) FPS
Color space : YUV
Chroma subsampling : 4:2:0
Bit depth : 8 bits
Scan type : Progressive
Bits/(Pixel*Frame) : 0.074
Stream size : 1 002 MiB (97%)

AEW Double Or Nothing 2021 

Audio
ID : 2
Format : AAC LC
Codec ID : mp4a-40-2
Duration : 30 min 33 s
Duration_LastFrame : -3 ms
Bit rate mode : Variable
Bit rate : 127 kb/s
Maximum bit rate : 128 kb/s
Channel(s) : 2 channels
Channel layout : L R
Sampling rate : 48.0 kHz
Frame rate : 46.875 FPS (1024 SPF)
Compression mode : Lossy
Stream size : 27.7 MiB (3%)
Default : Yes
Alternate group : 1

Text #1
ID : 1-CC1
Format : EIA-608
Muxing mode : SCTE 128 / DTVCC Transport
Muxing mode, more info : Muxed in Video #1
Duration : 30 min 33 s
Bit rate mode : Constant
Stream size : 0.00 Byte (0%)
CaptionServiceName : CC1

Text #2
ID : 1-CC3
Format : EIA-608
Muxing mode : SCTE 128 / DTVCC Transport
Muxing mode, more info : Muxed in Video #1
Duration : 30 min 33 s
Bit rate mode : Constant
Stream size : 0.00 Byte (0%)
CaptionServiceName : CC3

AEW Double Or Nothing 2021 

Text #3
ID : 1-1
Format : EIA-708
Muxing mode : SCTE 128 / DTVCC Transport
Muxing mode, more info : Muxed in Video #1
Duration : 30 min 33 s
Bit rate mode : Constant
Stream size : 0.00 Byte (0%)

Text #4
ID : 1-2
Format : EIA-708
Muxing mode : SCTE 128 / DTVCC Transport
Muxing mode, more info : Muxed in Video #1
Duration : 30 min 33 s
Bit rate mode : Constant
Stream size : 0.00 Byte (0%)

AEW Double Or Nothing 2021 

Text #5
ID : 1-3
Format : EIA-708
Muxing mode : SCTE 128 / DTVCC Transport
Muxing mode, more info : Muxed in Video #1
Duration : 30 min 33 s
Bit rate mode : Constant
Stream size : 0.00 Byte (0%)

Text #6
ID : 1-4
Format : EIA-708
Muxing mode : SCTE 128 / DTVCC Transport
Muxing mode, more info : Muxed in Video #1
Duration : 30 min 33 s
Bit rate mode : Constant
Stream size : 0.00 Byte (0%)

Text #7
ID : 1-5
Format : EIA-708
Muxing mode : SCTE 128 / DTVCC Transport
Muxing mode, more info : Muxed in Video #1
Duration : 30 min 33 s
Bit rate mode : Constant
Stream size : 0.00 Byte (0%)

AEW Double Or Nothing 2021 

Text #8
ID : 1-6
Format : EIA-708
Muxing mode : SCTE 128 / DTVCC Transport
Muxing mode, more info : Muxed in Video #1
Duration : 30 min 33 s
Bit rate mode : Constant
Stream size : 0.00 Byte (0%)

 

 

[collapse]

 

 

https://dx-tv.com/

Leave a Reply

Your email address will not be published. Required fields are marked *

This site uses Akismet to reduce spam. Learn how your comment data is processed.