AEW Double Or Nothing 2021 Online Replay 720p

AEW Double Or Nothing 2021 Online Replay 720p DX-TV

AEW Double Or Nothing 

 AEW Double Or Nothing 2021

 

 

Download Links with premium High Speed


Dopapk

 

 

 

 

Nitroflare

 

 

 

 

Rapidgator

 

 

 

 

Uploaded

 

 

 

 

Watch online

 

Server 1

 

 

AEW Double Or Nothing 2021

 

 

 

 

Server-2

 

 

 

 

watch now

 

 

 

|Server-4

 

 

 

 

watch now

 

 

Uploaded By Site DX-TV.com

 

 

Show Info This Show

 

AEW Double Or Nothing 2021

–  Double Or Nothing 2021 PPV Match Card.

# AEW World Championship 3Way Match
* Kenny Omega Vs PAC Vs Orange cassidy

# Stadium Stampede Match
* Inner Circle Vs The Pinnacle

# Tag Team Championship Match
* Jon Moxley & Eddie Kingston Vs The Young Bucks

# AEW Womens Championship Singles Match
* Hikaru Shida Vs Britt Baker

# TNT Championship Singles Match
* Miro Vs Lance Archer

# TagTeam Match
* Sting & Darby Allin Vs Scorpio Sky & Ethan Page

# Singles Match
* Hangman Page Vs Brian Cage ( With Taz )

AEW Double Or Nothing 2021

Watch Double Or Nothing 2021 FULL CARD

Double or Nothing is an upcoming professional wrestling pay-per-view event produced by All Elite Wrestling. It is scheduled to take place on May 30, 2021 at Daily’s Place in Jacksonville, Florida; the Stadium Stampede match between The Inner Circle and The Pinnacle is scheduled to take place at TIAA Bank Field.

 

Double Or Nothing

Complete name : AEW.Double.Or.Nothing.2021.PPV.WEB.h264-HEEL.mp4
Format : MPEG-4
Format profile : Base Media
Codec ID : isom
File size : 3.22 GiB
Duration : 3 h 56 min
Overall bit rate mode : Variable
Overall bit rate : 1 954 kb/s

Video
ID : 1
Format : AVC
Format/Info : Advanced Video
Duration : 3 h 56 min
Bit rate mode : Constant
Bit rate : 1 800 kb/s
Width : 848 pixels
Height : 480 pixels
Display aspect ratio : 16:9
Frame rate mode : Constant
Frame rate : 29.970 (30000/1001) FPS
Color space : YUV
Chroma subsampling : 4:2:0
Bit depth : 8 bits
Scan type : Progressive
Bits/(Pixel*Frame) : 0.148
Stream size : 3.00 GiB (93%)
Codec configuration box : avcC

AEW Double Or Nothing

Audio
ID : 2
Format : AAC LC
Format/Info : Advanced Audio
Codec ID : mp4a-40-2
Duration : 3 h 56 min
Bit rate mode : Variable
Bit rate : 126 kb/s
Maximum bit rate : 128 kb/s
Channel(s) : 2 channels
Channel layout : L R
Sampling rate : 44.1 kHz
Frame rate : 43.066 FPS (1024 SPF)
Compression mode : Lossy
Stream size : 212 MiB (6%)
Default : Yes
Alternate group : 1

Text #1
ID : 1-CC1
Format : EIA-608
Muxing mode : SCTE 128 / DTVCC Transport
Muxing mode, more info : Muxed in Video #1
Duration : 3 h 56 min
Bit rate mode : Constant
Stream size : 0.00 Byte (0%)
CaptionServiceName : CC1

AEW Double Or Nothing

Text #2
ID : 1-CC3
Format : EIA-608
Muxing mode : SCTE 128 / DTVCC Transport
Muxing mode, more info : Muxed in Video #1
Duration : 3 h 56 min
Bit rate mode : Constant
Stream size : 0.00 Byte (0%)
CaptionServiceName : CC3

AEW Double Or Nothing

Text #3
ID : 1-1
Format : EIA-708
Muxing mode : SCTE 128 / DTVCC Transport
Muxing mode, more info : Muxed in Video #1
Duration : 3 h 56 min
Bit rate mode : Constant
Stream size : 0.00 Byte (0%)

Text #4
ID : 1-3
Format : EIA-708
Muxing mode : SCTE 128 / DTVCC Transport
Muxing mode, more info : Muxed in Video #1
Duration : 3 h 56 min
Bit rate mode : Constant
Stream size : 0.00 Byte (0%)

Double Or Nothing

 

Complete name : AEW.Double.Or.Nothing.2021.720p.PPV.WEB By DX-TV.com.mp4
Format : MPEG-4
Format profile : Base Media
Codec ID : isom 
File size : 3.23 GiB
Duration : 3 h 56 min
Overall bit rate : 1 960 kb/s

AEW Double Or Nothing 

Video
ID : 2
Format : AVC
Format/Info : Advanced Video 
Bit rate : 1 852 kb/s
Width : 1 280 pixels
Height : 720 pixels
Display aspect ratio : 16:9
Frame rate mode : Variable
Frame rate : 29.970 FPS
Color space : YUV
Chroma subsampling : 4:2:0
Bit depth : 8 bits
Scan type : Progressive
Bits/(Pixel*Frame) : 0.067
Stream size : 3.05 GiB (94%)
Codec configuration box : avcC

Audio
ID : 1
Format : AAC LC
Format/Info : Advanced Audio 
Codec ID : mp4a-40-2
Duration : 3 h 56 min
Bit rate mode : Constant
Bit rate : 96.0 kb/s
Channel(s) : 2 channels
Channel layout : L R
Sampling rate : 48.0 kHz
Frame rate : 46.875 FPS (1024 SPF)
Compression mode : Lossy
Stream size : 163 MiB (5%)
Default : Yes
Alternate group : 1

AEW Double Or Nothing

Text #1
ID : 2-CC1
Format : EIA-608
Muxing mode : SCTE 128 / DTVCC Transport
Muxing mode, more info : Muxed in Video #1
Duration : 3 h 56 min
Bit rate mode : Constant
Stream size : 0.00 Byte (0%)
CaptionServiceName : CC1

AEW Double Or Nothing 

Text #2
ID : 2-CC3
Format : EIA-608
Muxing mode : SCTE 128 / DTVCC Transport
Muxing mode, more info : Muxed in Video #1
Duration : 3 h 56 min
Bit rate mode : Constant
Stream size : 0.00 Byte (0%)
CaptionServiceName : CC3

Text #3
ID : 2-1
Format : EIA-708
Muxing mode : SCTE 128 / DTVCC Transport
Muxing mode, more info : Muxed in Video #1
Duration : 3 h 56 min
Bit rate mode : Constant
Stream size : 0.00 Byte (0%)

AEW Double Or Nothing

Text #4
ID : 2-2
Format : EIA-708
Muxing mode : SCTE 128 / DTVCC Transport
Muxing mode, more info : Muxed in Video #1
Duration : 3 h 56 min
Bit rate mode : Constant
Stream size : 0.00 Byte (0%)

Text #5
ID : 2-3
Format : EIA-708
Muxing mode : SCTE 128 / DTVCC Transport
Muxing mode, more info : Muxed in Video #1
Duration : 3 h 56 min
Bit rate mode : Constant
Stream size : 0.00 Byte (0%)

Double Or Nothing 

Text #6
ID : 2-4
Format : EIA-708
Muxing mode : SCTE 128 / DTVCC Transport
Muxing mode, more info : Muxed in Video #1
Duration : 3 h 56 min
Bit rate mode : Constant
Stream size : 0.00 Byte (0%)

Text #7
ID : 2-5
Format : EIA-708
Muxing mode : SCTE 128 / DTVCC Transport
Muxing mode, more info : Muxed in Video #1
Duration : 3 h 56 min
Bit rate mode : Constant
Stream size : 0.00 Byte (0%)

AEW Double Or Nothing

Text #8
ID : 2-6
Format : EIA-708
Muxing mode : SCTE 128 / DTVCC Transport
Muxing mode, more info : Muxed in Video #1
Duration : 3 h 56 min
Bit rate mode : Constant
Stream size : 0.00 Byte (0%)

AEW Double Or Nothing 

 

[collapse]

 

 

https://dx-tv.com/

Leave a Reply

Your email address will not be published. Required fields are marked *

This site uses Akismet to reduce spam. Learn how your comment data is processed.