AEW Double Or Nothing 2021 Free 720p Replay

AEW Double Or Nothing 2021 Free 720p Replay 9GB DX-TV

AEW Double Or Nothing 2021 Free

AEW Double Or Nothing 2021 Free

 

 

 

Download Links with High Speed


 

Dopapk

 

 

Show Links

 

http://shrt10.com/cp1H3
http://shrt10.com/0IAG2L9
http://shrt10.com/6IvvA9K

 

[collapse]

 

 

Nitroflare

 

 

Show Links

 

http://shrt10.com/IGHHd0i

 

[collapse]

 

 

Rapidgator

 

 

Show Links

 

http://shrt10.com/8UNgmuO

 

[collapse]

 

 

Uploaded

 

 

Show Links

 

http://shrt10.com/xa8QR
http://shrt10.com/KACEo
http://shrt10.com/Le6s4aG

 

[collapse]

 

 

Watch online

 

Server 1

 

 

 

 

AEW Double Or Nothing 2021 Free

 

 

 

 

Server-2

 

 

 

 

AEW Double Or Nothing 2021 Free

 

 

 

|Server-4

 

 

 

 

watch now

 

 

Uploaded By Site DX-TV.com

 

 

Show Info This Show

 

 

Complete name : AEW.Double.Or.Nothing.2021.PPV.720p.WEB.h264-HEEL .mp4
Format : MPEG-4
Format profile : Base Media
Codec ID : isom
File size : 9.57 GiB
Duration : 3 h 56 min
Overall bit rate mode : Variable
Overall bit rate : 5 796 kb/s

AEW Double Or Nothing 2021 Free

Video
ID : 1
Format : AVC
Format/Info : Advanced Video
Duration : 3 h 56 min
Bit rate mode : Constant
Bit rate : 5 524 kb/s
Width : 1 280 pixels
Height : 720 pixels
Display aspect ratio : 16:9
Frame rate mode : Variable
Frame rate : 59.940 (60000/1001) FPS
Minimum frame rate : 59.920 FPS
Maximum frame rate : 59.960 FPS
Color space : YUV
Chroma subsampling : 4:2:0
Bit depth : 8 bits
Scan type : Progressive
Bits/(Pixel*Frame) : 0.100
Stream size : 9.12 GiB (95%)
Codec configuration box : avcC

Audio #1
ID : 2
Format : AAC LC
Format/Info : Advanced Audio
Codec ID : mp4a-40-2
Duration : 3 h 56 min
Bit rate mode : Constant
Bit rate : 126 kb/s
Channel(s) : 2 channels
Channel layout : L R
Sampling rate : 44.1 kHz
Frame rate : 43.066 FPS (1024 SPF)
Compression mode : Lossy
Stream size : 212 MiB (2%)
Language : English
Default : Yes
Alternate group : 1

AEW Double Or Nothing 2021 

Audio #2
ID : 3
Format : AAC LC
Format/Info : Advanced Audio
Codec ID : mp4a-40-2
Duration : 3 h 56 min
Bit rate mode : Variable
Bit rate : 126 kb/s
Maximum bit rate : 128 kb/s / 128 kb/s
Channel(s) : 2 channels
Channel layout : L R
Sampling rate : 44.1 kHz
Frame rate : 43.066 FPS (1024 SPF)
Compression mode : Lossy
Stream size : 212 MiB (2%)
Language : Spanish
Default : No
Alternate group : 1

Text #1
ID : 1-CC1
Format : EIA-608
Muxing mode : SCTE 128 / DTVCC Transport
Muxing mode, more info : Muxed in Video #1
Duration : 3 h 56 min
Bit rate mode : Constant
Stream size : 0.00 Byte (0%)
CaptionServiceName : CC1

Text #2
ID : 1-CC3
Format : EIA-608
Muxing mode : SCTE 128 / DTVCC Transport
Muxing mode, more info : Muxed in Video #1
Duration : 3 h 56 min
Bit rate mode : Constant
Stream size : 0.00 Byte (0%)
CaptionServiceName : CC3

Text #3
ID : 1-1
Format : EIA-708
Muxing mode : SCTE 128 / DTVCC Transport
Muxing mode, more info : Muxed in Video #1
Duration : 3 h 56 min
Bit rate mode : Constant
Stream size : 0.00 Byte (0%)

AEW Double Or Nothing 2021 

Text #4
ID : 1-3
Format : EIA-708
Muxing mode : SCTE 128 / DTVCC Transport
Muxing mode, more info : Muxed in Video #1
Duration : 3 h 56 min
Bit rate mode : Constant
Stream size : 0.00 Byte (0%)

 

 

[collapse]

 

 

https://dx-tv.com/

Leave a Reply

Your email address will not be published. Required fields are marked *

This site uses Akismet to reduce spam. Learn how your comment data is processed.