AEW Double Or Nothing 2021 Countdown Show 1080p

AEW Double Or Nothing 2021 Countdown Show FITE 1080p DX-TV

AEW Double Or Nothing 2021 Countdown Show

 AEW Double Or Nothing 2021 Countdown Show

 

 

 

Download Links with premium High Speed


Dopapk

 

 

Show Links

 

http://shrt10.com/eyx80W

 

[collapse]

 

 

Nitroflare

 

 

Show Links

 

http://shrt10.com/2WfCFxE

 

[collapse]

 

 

Rapidgator

 

 

Show Links

 

http://shrt10.com/vMKwFa

 

[collapse]

 

 

Uploaded

 

 

Show Links

 

http://shrt10.com/z6BJVn

 

[collapse]

 

 

Watch online

 

Server 1

 

 

 

 

AEW Double Or Nothing 2021 Countdown Show

 

 

 

 

Server-2

 

 

 

 

watch now

 

 

 

|Server-4

 

 

 

 

watch now

 

 

Uploaded By Site DX-TV.com

 

 

Show Info This Show

 

 

Complete name : AEW.Double.Or.Nothing.2021.Countdown.Show.FITE.1080p.WEBRip.h264-TJ.mp4
Format : MPEG-4
Format profile : Base Media
Codec ID : isom
File size : 1.35 GiB
Duration : 43 min 37 s
Overall bit rate : 4 439 kb/s

AEW Double Or Nothing 2021 Countdown Show

Video
ID : 1
Format : AVC
Format/Info : Advanced Video
Duration : 43 min 37 s
Source duration : 43 min 37 s
Bit rate : 4 159 kb/s
Nominal bit rate : 4 800 kb/s
Maximum bit rate : 4 335 kb/s
Width : 1 920 pixels
Height : 1 080 pixels
Display aspect ratio : 16:9
Frame rate mode : Constant
Frame rate : 29.970 (30000/1001) FPS
Color space : YUV
Chroma subsampling : 4:2:0
Bit depth : 8 bits
Scan type : Progressive
Bits/(Pixel*Frame) : 0.067
Stream size : 1.27 GiB (94%)
Source stream size : 1.32 GiB (98%)
Writing library : x264 core 152
Codec configuration box : avcC

Audio
ID : 2
Format : AAC LC
Format/Info : Advanced Audio
Codec ID : mp4a-40-2
Duration : 43 min 37 s
Bit rate mode : Constant
Bit rate : 96.0 kb/s
Channel(s) : 2 channels
Channel layout : L R
Sampling rate : 48.0 kHz
Frame rate : 46.875 FPS
Compression mode : Lossy
Stream size : 30.0 MiB (2%)
Default : Yes
Alternate group : 1

AEW Double Or Nothing 2021 

Audio
ID : 2
Format : AAC LC
Format/Info : Advanced Audio
Codec ID : mp4a-40-2
Duration : 43 min 37 s
Bit rate mode : Constant
Bit rate : 96.0 kb/s
Channel(s) : 2 channels
Channel layout : L R
Sampling rate : 48.0 kHz
Frame rate : 46.875 FPS
Compression mode : Lossy
Stream size : 30.0 MiB (2%)
Default : Yes
Alternate group : 1

Audio
ID : 2
Format : AAC LC
Format/Info : Advanced Audio
Codec ID : mp4a-40-2
Duration : 43 min 37 s
Bit rate mode : Constant
Bit rate : 96.0 kb/s
Channel(s) : 2 channels
Channel layout : L R
Sampling rate : 48.0 kHz
Frame rate : 46.875 FPS
Compression mode : Lossy
Stream size : 30.0 MiB (2%)
Default : Yes
Alternate group : 1

AEW Double Or Nothing 2021 

Audio
ID : 2
Format : AAC LC
Format/Info : Advanced Audio
Codec ID : mp4a-40-2
Duration : 43 min 37 s
Bit rate mode : Constant
Bit rate : 96.0 kb/s
Channel(s) : 2 channels
Channel layout : L R
Sampling rate : 48.0 kHz
Frame rate : 46.875 FPS
Compression mode : Lossy
Stream size : 30.0 MiB (2%)
Default : Yes
Alternate group : 1

Audio
ID : 2
Format : AAC LC
Format/Info : Advanced Audio
Codec ID : mp4a-40-2
Duration : 43 min 37 s
Bit rate mode : Constant
Bit rate : 96.0 kb/s
Channel(s) : 2 channels
Channel layout : L R
Sampling rate : 48.0 kHz
Frame rate : 46.875 FPS
Compression mode : Lossy
Stream size : 30.0 MiB (2%)
Default : Yes
Alternate group : 1

 

AEW Double Or Nothing 2021 

[collapse]

 

 

https://dx-tv.com/

Leave a Reply

Your email address will not be published. Required fields are marked *

This site uses Akismet to reduce spam. Learn how your comment data is processed.