AEW Double Or Nothing 2021 1080p Free Replay

AEW Double Or Nothing 2021 1080p Free Replay DX-TV

AEW Double Or Nothing 2021 1080p

 AEW Double Or Nothing 2021 1080p

 

 

 

Download Links with High Speed


Dopapk

 

 

Show Links

 

http://shrt10.com/IzR8w6

 

[collapse]

 

 

Nitroflare

 

 

Show Links

 

http://shrt10.com/mpKL6g

 

[collapse]

 

 

Rapidgator

 

 

Show Links

 

http://shrt10.com/rlvbMxGI

 

[collapse]

 

 

Uploaded

 

 

Show Links

 

 

[collapse]

 

 

Watch online

 

Server 1

 

 

 

 

AEW Double Or Nothing 2021 1080p

 

 

 

 

Server-2

 

 

 

 

watch now

 

 

 

|Server-4

 

 

 

 

watch now

 

 

Uploaded By Site DX-TV.com

 

 

Show Info This Show

 

 

Complete name : AEW.Double.Or.Nothing.2021.PPV.1080p.WEB By DX-TV.com.mp4
Format : MPEG-4
Format profile : Base Media
Codec ID : isom
File size : 6.75 GiB
Duration : 3 h 56 min
Overall bit rate : 4 082 kb/s

AEW Double Or Nothing 2021 1080p

Video
ID : 1
Format : AVC
Format/Info : Advanced Video
Duration : 3 h 56 min
Source duration : 3 h 56 min
Bit rate : 3 940 kb/s
Width : 1 920 pixels
Height : 1 080 pixels
Display aspect ratio : 16:9
Frame rate mode : Variable
Frame rate : 29.970 (30000/1001) FPS
Minimum frame rate : 29.412 FPS
Maximum frame rate : 30.303 FPS
Color space : YUV
Chroma subsampling : 4:2:0
Bit depth : 8 bits
Scan type : Progressive
Bits/(Pixel*Frame) : 0.063
Stream size : 6.51 GiB (97%)
Source stream size : 6.51 GiB (97%)
mdhd_Duration : 14196082
Codec configuration box : avcC

Audio
ID : 2
Format : AAC LC
Format/Info : Advanced Audio
Codec ID : mp4a-40-2
Duration : 3 h 56 min
Bit rate mode : Constant
Bit rate : 128 kb/s
Channel(s) : 2 channels
Channel layout : L R
Sampling rate : 48.0 kHz
Frame rate : 46.875 FPS (1024 SPF)
Compression mode : Lossy
Stream size : 217 MiB (3%)
Default : Yes
Alternate group : 1

Text #1
ID : 1-CC1
Format : EIA-608
Muxing mode : SCTE 128 / DTVCC Transport
Muxing mode, more info : Muxed in Video #1
Duration : 3 h 56 min
Bit rate mode : Constant
Stream size : 0.00 Byte (0%)
CaptionServiceName : CC1

AEW Double Or Nothing 2021 1080p

Text #2
ID : 1-CC3
Format : EIA-608
Muxing mode : SCTE 128 / DTVCC Transport
Muxing mode, more info : Muxed in Video #1
Duration : 3 h 56 min
Bit rate mode : Constant
Stream size : 0.00 Byte (0%)
CaptionServiceName : CC3

Text #3
ID : 1-1
Format : EIA-708
Muxing mode : SCTE 128 / DTVCC Transport
Muxing mode, more info : Muxed in Video #1
Duration : 3 h 56 min
Bit rate mode : Constant
Stream size : 0.00 Byte (0%)

Text #4
ID : 1-2
Format : EIA-708
Muxing mode : SCTE 128 / DTVCC Transport
Muxing mode, more info : Muxed in Video #1
Duration : 3 h 56 min
Bit rate mode : Constant
Stream size : 0.00 Byte (0%)

AEW Double Or Nothing 2021

Text #5
ID : 1-3
Format : EIA-708
Muxing mode : SCTE 128 / DTVCC Transport
Muxing mode, more info : Muxed in Video #1
Duration : 3 h 56 min
Bit rate mode : Constant
Stream size : 0.00 Byte (0%)

Text #6
ID : 1-4
Format : EIA-708
Muxing mode : SCTE 128 / DTVCC Transport
Muxing mode, more info : Muxed in Video #1
Duration : 3 h 56 min
Bit rate mode : Constant
Stream size : 0.00 Byte (0%)

Text #7
ID : 1-5
Format : EIA-708
Muxing mode : SCTE 128 / DTVCC Transport
Muxing mode, more info : Muxed in Video #1
Duration : 3 h 56 min
Bit rate mode : Constant
Stream size : 0.00 Byte (0%)

Text #8
ID : 1-6
Format : EIA-708
Muxing mode : SCTE 128 / DTVCC Transport
Muxing mode, more info : Muxed in Video #1
Duration : 3 h 56 min
Bit rate mode : Constant
Stream size : 0.00 Byte (0%)

AEW Double Or Nothing 2021 1080p

Text #2
ID : 1-CC3
Format : EIA-608
Muxing mode : SCTE 128 / DTVCC Transport
Muxing mode, more info : Muxed in Video #1
Duration : 3 h 56 min
Bit rate mode : Constant
Stream size : 0.00 Byte (0%)
CaptionServiceName : CC3

Text #3
ID : 1-1
Format : EIA-708
Muxing mode : SCTE 128 / DTVCC Transport
Muxing mode, more info : Muxed in Video #1
Duration : 3 h 56 min
Bit rate mode : Constant
Stream size : 0.00 Byte (0%)

Text #4
ID : 1-2
Format : EIA-708
Muxing mode : SCTE 128 / DTVCC Transport
Muxing mode, more info : Muxed in Video #1
Duration : 3 h 56 min
Bit rate mode : Constant
Stream size : 0.00 Byte (0%)

AEW Double Or Nothing 2021

Text #5
ID : 1-3
Format : EIA-708
Muxing mode : SCTE 128 / DTVCC Transport
Muxing mode, more info : Muxed in Video #1
Duration : 3 h 56 min
Bit rate mode : Constant
Stream size : 0.00 Byte (0%)

Text #6
ID : 1-4
Format : EIA-708
Muxing mode : SCTE 128 / DTVCC Transport
Muxing mode, more info : Muxed in Video #1
Duration : 3 h 56 min
Bit rate mode : Constant
Stream size : 0.00 Byte (0%)

Text #7
ID : 1-5
Format : EIA-708
Muxing mode : SCTE 128 / DTVCC Transport
Muxing mode, more info : Muxed in Video #1
Duration : 3 h 56 min
Bit rate mode : Constant
Stream size : 0.00 Byte (0%)

Text #8
ID : 1-6
Format : EIA-708
Muxing mode : SCTE 128 / DTVCC Transport
Muxing mode, more info : Muxed in Video #1
Duration : 3 h 56 min
Bit rate mode : Constant
Stream size : 0.00 Byte (0%)

AEW Double Or Noth

 

[collapse]

 

 

https://dx-tv.com/

Leave a Reply

Your email address will not be published. Required fields are marked *

This site uses Akismet to reduce spam. Learn how your comment data is processed.