AEW Double Or Nothing 2020 Online Free

Watch AEW Double Or Nothing 2020 PPV Online HEEL DX-TV

 

AEW Double Or Nothing

AEW Double Or Nothing

AEW Double Or Nothing 2020 Online Free

 

 

Complete name : AEW.Double.Or.Nothing.2020.PPV.WEB.h264-HEEL.mp4
Format : MPEG-4
Format profile : Base Media
Codec ID : isom
File size : 3.03 GiB
Duration : 3 h 43 min
Overall bit rate mode : Variable
Overall bit rate : 1 935 kb/s
Writing application : AEW Double Or Nothing

Video
ID : 1
Format : AVC
Codec ID/Info : AEW Double Or Nothing
Duration : 3 h 43 min
Bit rate mode : Constant
Bit rate : 1 800 kb/s
Width : 848 pixels
Height : 480 pixels
Display aspect ratio : 16:9
Frame rate mode : Constant
Frame rate : 29.970 (30000/1001) FPS
Color space : YUV
Chroma subsampling : 4:2:0
Bit depth : 8 bits
Scan type : AEW Double Or Nothing
Bits/(Pixel*Frame) : 0.148
Stream size : 2.82 GiB (93%)
Codec box : avcC

Audio
ID : 2
Format : AAC LC
Format/Info : AEW Double Or Nothing
Codec ID : mp4a-40-2
Duration : 3 h 43 min
Bit rate mode : Variable
Bit rate : 126 kb/s
Maximum bit rate : 144 kb/s
Channel(s) : 2 channels
Channel layout : L R
Sampling rate : 44.1 kHz
Frame rate : 43.066 FPS (1024 SPF)
Compression mode : Lossy
Stream size : 201 MiB (6%)
Default : Yes
Alternate group : AEW Double Or Nothing

 

 

 

Watch online

 

 

Server 1

 

 

 

 

watch now

 

 

 

 

Server 2

 

 

 

watch now

 

 

 

AEW Double Or Nothing 2020 Online Free

 

 

Uploaded By Site DX-TV.com

 

 

 

Download with premium account LinksĀ 

 

 

Keep2Share

 

 

nitroflare.com

 

 

rapidgator.net

 

 

uploadgig.com

 

 

 

dx-tv.com

 

urlfree.net

You May Also Like