AEW Double Or Nothing 2020 720p Free Full Show

Watch AEW Double Or Nothing 2020 PPV 720p free HEEL DX-TV

 

AEW Double Or Nothing

AEW Double Or Nothing

AEW Double Or Nothing 2020 720p Free Full Show

 

 

 

Complete name : AEW.Double.Or.Nothing.2020.PPV.720p.WEB.h264-HEEL.mp4
Format : MPEG-4
Format profile : Base Media
Codec ID : AEW Double Or Nothing
File size : 7.45 GiB
Duration : 3 h 44 min
Overall bit rate mode : Variable
Overall bit rate : 4 748 kb/s
Writing application : Lavf58.36.100

Video
ID : 1
Format : AVC
Codec ID : avc1
Codec ID/Info : AEW Double Or Nothing
Duration : 3 h 43 min
Bit rate mode : Constant
Bit rate : 4 500 kb/s
Width : 1 280 pixels
Height : 720 pixels
Display aspect ratio : 16:9
Frame rate mode : Constant
Frame rate : 29.970 (30000/1001) FPS
Color space : YUV
Chroma subsampling : 4:2:0
Bit depth : 8 bits
Scan type : Progressive
Bits/(Pixel*Frame) : 0.163
Stream size : 7.04 GiB (94%)
Codec configuration box : AEW Double Or Nothing

Audio #1
ID : 2
Format : AAC LC
Format/Info : AEW Double Or Nothing
Codec ID : mp4a-40-2
Duration : 3 h 43 min
Bit rate mode : Constant
Bit rate : 126 kb/s
Channel(s) : 2 channels
Channel layout : L R
Sampling rate : 44.1 kHz
Frame rate : 43.066 FPS (1024 SPF)
Compression mode : Lossy
Stream size : 201 MiB (3%)
Language : English
Default : Yes
Alternate group : AEW Double Or Nothing

Audio #2
ID : 3
Format : AAC LC
Format/Info : AEW Double Or Nothing
Codec ID : mp4a-40-2
Duration : 3 h 44 min
Bit rate mode : Variable
Bit rate : 126 kb/s
Maximum bit rate : 129 kb/s
Channel(s) : 2 channels
Channel layout : L R
Sampling rate : 44.1 kHz
Frame rate : 43.066 FPS (1024 SPF)
Compression mode : Lossy
Stream size : 202 MiB (3%)
Language : Spanish
Default : No
Alternate group : AEW Double Or Nothing

 

 

 

Watch online

 

 

Server 1

 

 

 

 

watch now

 

 

 

 

Server 2

 

 

 

watch now

 

 

 

AEW Double Or Nothing 2020 720p Free Full Show

 

 

Uploaded By Site DX-TV.com

 

 

 

Download with premium account LinksĀ 

 

 

Keep2Share

 

 

nitroflare.com

 

 

rapidgator.net

 

 

uploadgig.com

 

 

 

dx-tv.com

 

urlfree.net

You May Also Like