AEW DARK Watch Online 22 12 2020 1080p DX-TV

AEW Dark 2019

AEW DARK Watch Online 22 12 2020 720p /1080p DX-TV

AEW DARK Watch Online

 AEW DARK Watch Online

 

Download Links with premium High Speed   

 

 

nitroflare.com

http://shrt10.com/bk1RRa5
http://shrt10.com/NxUpc

 

 

rapidgator.net

 

http://shrt10.com/h9EZUG
http://shrt10.com/huiJ5fXa

 

 

uploaded.net

http://shrt10.com/azWvlAo

http://shrt10.com/edaqDu

 

 

uploadgig.com

http://shrt10.com/wEPDaT
http://shrt10.com/apC9wP

 

AEW DARK Watch Online 

 

Server 1

 

 

 

 

AEW DARK Watch Online

 

 

 

 

Server-2

 

 

 

 

watch now

 

 

Uploaded By Site DX-TV.com

 

 

 

[su_expand more_text=”Show More Info” less_text=”Close all Info” height=”50″ text_color=”#000000″ link_color=”#e25f8b” link_style=”button” more_icon=”icon: arrow-down” less_icon=”icon: arrow-up”]

Complete name :AEW.DARK.22nd.Dec.2020.1080p.WEBRip.h264-TJ.mp4
Format : MPEG-4
Format profile : Base Media
File size : 3.67 GiB
Duration : 1 h 56 min
Overall bit rate : 4 523 kb/s
Writing application : Lavf57.83.100

AEW DARK Watch Online

Video
ID : 1
Format : AVC
Format/Info : Advanced Video
Duration : 1 h 56 min
Bit rate : 4 387 kb/s
Width : 1 920 pixels
Height : 1 080 pixels
Display aspect ratio : 16:9
Frame rate mode : Constant
Frame rate : 29.970 (30000/1001) FPS
Color space : YUV
Chroma subsampling : 4:2:0
Bit depth : 8 bits
Scan type : Progressive
Bits/(Pixel*Frame) : 0.071
Stream size : 3.56 GiB (97%)
Color range : Limited
Color primaries : BT.709
Transfer characteristics : BT.709
Matrix coefficients : BT.709
Codec configuration box : avc

AEW DARK  

Audio
ID : 2
Format : AAC LC
Format/Info : Advanced Audio Codec Low Complexity
Codec ID : mp4a-40-2
Duration : 1 h 56 min
Bit rate mode : Constant
Bit rate : 128 kb/s
Channel(s) : 2 channels
Channel layout : L R
Sampling rate : 44.1 kHz
Frame rate : 43.066 FPS (1024 SPF)
Compression mode : Lossy
Stream size : 106 MiB (3%)
Language : English
Default : Yes
Alternate group : 1

Complete name : AEW.DARK.22nd.Dec.2020.720p.WEBRip.h264-TJ.mp4
Format : MPEG-4
Format profile : Base Media
Codec ID : isom
File size : 1.81 GiB
Duration : 1 h 56 min
Overall bit rate : 2 229 kb/s
Writing application : Lavf57.83.100

AEW DARK Watch Online

Video
ID : 1
Format : AVC
Format/Info : Advanced Video
Duration : 1 h 56 min
Bit rate : 2 094 kb/s
Width : 1 280 pixels
Height : 720 pixels
Display aspect ratio : 16:9
Frame rate mode : Constant
Frame rate : 29.970 (30000/1001) FPS
Color space : YUV
Chroma subsampling : 4:2:0
Bit depth : 8 bits
Scan type : Progressive
Bits/(Pixel*Frame) : 0.076
Stream size : 1.70 GiB (94%)
Color range : Limited
Color primaries : BT.709
Transfer characteristics : BT.709
Matrix coefficients : BT.709
Codec configuration box : avc

AEW DARK  

Audio
ID : 2
Format : AAC LC
Format/Info : Advanced Audio
Codec ID : mp4a-40-2
Duration : 1 h 56 min
Bit rate mode : Constant
Bit rate : 128 kb/s
Channel(s) : 2 channels
Channel layout : L R
Sampling rate : 44.1 kHz
Frame rate : 43.066 FPS (1024 SPF)
Compression mode : Lossy
Stream size : 106 MiB (6%)
Language : English
Default : Yes
Alternate group : 1

 DARK Watch Online

[/su_expand]

 

https://dx-tv.com/

You May Also Like

Leave a Reply

Your email address will not be published. Required fields are marked *

This site uses Akismet to reduce spam. Learn how your comment data is processed.