AEW DARK Online Free 25 May 2021 1080p

AEW DARK Online Free 25 May 2021 720p / 1080p DX-TV

AEW DARK Online Free

 AEW DARK Online Free

 

 

 

Download Links with High Speed


Dopapk

 

 

Show Links

 

http://shrt10.com/B8ohg
http://shrt10.com/FZ3eH7b

 

[collapse]

 

 

Nitroflare

 

 

Show Links

 

http://shrt10.com/UTRUMv
http://shrt10.com/qCR7w

 

[collapse]

 

 

Rapidgator

 

 

Show Links

 

http://shrt10.com/Oasso
http://shrt10.com/Wt1RKOBgh

 

[collapse]

 

 

Uploaded

 

 

Show Links

 

http://shrt10.com/obOlYD
http://shrt10.com/nSiwxWo

 

[collapse]

 

 

Watch online

 

Server 1

 

 

 

 

AEW DARK Online Free

 

 

 

 

Server-2

 

 

 

 

watch now

 

 

 

|Server-4

 

 

 

 

watch now

 

 

Uploaded By Site DX-TV.com

 

 

Show Info This Show

 

 

Complete name : AEW.DARK.25th.May.2021.720p.WEBRip.h264-TJ.mp4
Format : MPEG-4
Format profile : Base Media
Codec ID : isom
File size : 1.41 GiB
Duration : 1 h 32 min
Overall bit rate : 2 184 kb/s

AEW DARK Online Free

Video
ID : 1
Format : AVC
Format/Info : Advanced Video
Duration : 1 h 32 min
Duration_FirstFrame : -33 ms
Bit rate : 2 049 kb/s
Width : 1 280 pixels
Height : 720 pixels
Display aspect ratio : 16:9
Frame rate mode : Variable
Frame rate : 29.970 FPS
Minimum frame rate : 29.970 FPS
Maximum frame rate : 29.990 FPS
Color space : YUV
Chroma subsampling : 4:2:0
Bit depth : 8 bits
Scan type : Progressive
Bits/(Pixel*Frame) : 0.074
Stream size : 1.33 GiB (94%)
Color range : Limited
Color primaries : BT.709
Transfer characteristics : BT.709
Matrix coefficients : BT.709
Codec configuration box : avcC

Audio
ID : 2
Format : AAC LC
Format/Info : Advanced Audio
Codec ID : mp4a-40-2
Duration : 1 h 32 min
Bit rate mode : Constant
Bit rate : 128 kb/s
Channel(s) : 2 channels
Channel layout : L R
Sampling rate : 44.1 kHz
Frame rate : 43.066 FPS
Compression mode : Lossy
Stream size : 84.9 MiB (6%)
Default : Yes
Alternate group : 1

Complete name : AEW.DARK.25th.May.2021.1080p.WEBRip.h264-TJ.mp4
Format : MPEG-4
Format profile : Base Media
Codec ID : isom
File size : 2.70 GiB
Duration : 1 h 32 min
Overall bit rate : 4 170 kb/s

AEW DARK Online

Video
ID : 1
Format : AVC
Format/Info : Advanced Video
Duration : 1 h 32 min
Duration_FirstFrame : -33 ms
Bit rate : 4 035 kb/s
Width : 1 920 pixels
Height : 1 080 pixels
Display aspect ratio : 16:9
Frame rate mode : Variable
Frame rate : 29.970 FPS
Minimum frame rate : 29.970 FPS
Maximum frame rate : 29.990 FPS
Color space : YUV
Chroma subsampling : 4:2:0
Bit depth : 8 bits
Scan type : Progressive
Bits/(Pixel*Frame) : 0.065
Stream size : 2.61 GiB (97%)
Color range : Limited
Color primaries : BT.709
Transfer characteristics : BT.709
Matrix coefficients : BT.709
Codec configuration box : avcC

Audio
ID : 2
Format : AAC LC
Format/Info : Advanced Audio
Codec ID : mp4a-40-2
Duration : 1 h 32 min
Bit rate mode : Constant
Bit rate : 128 kb/s
Channel(s) : 2 channels
Channel layout : L R
Sampling rate : 44.1 kHz
Frame rate : 43.066 FPS (1024 SPF)
Compression mode : Lossy
Stream size : 84.9 MiB (3%)
Default : Yes
Alternate group : 1

AEW DARK Online

 

[collapse]

 

 

https://dx-tv.com/

Leave a Reply

Your email address will not be published. Required fields are marked *

This site uses Akismet to reduce spam. Learn how your comment data is processed.