AEW DARK Online 5th Oct 2021 Replay

AEW DARK Online 5th Oct 2021 1080p Free Replay DX-TV

AEW DARK Online

 AEW DARK Online

 

 

 

Download Links with premium High Speed
 


Dopapk

 

 

Show Links

 

 

http://shrt10.com/Vj44AhdV
http://shrt10.com/RoHv4Ia

 

[collapse]

 

 

 

 

Nitroflare

 

 

Show Links

 

 

http://shrt10.com/OV7E2
http://shrt10.com/091BU6

 

 

[collapse]

 

 

Rapidgator

 

 

Show Links

 

 

http://shrt10.com/Xak4foLf
http://shrt10.com/m9MlReG5y

 

 

[collapse]

 

 

 

Uploaded
 

 

Show Links

 

 

 

 

http://shrt10.com/VLgxM
http://shrt10.com/I67lt

 

 

[collapse]

 

 

 

 

 

Watch AEW DARKĀ  online

 

Server 1

 

 

 

 

watch now

 

 

 

 

Server-2

 

 

 

 

AEW DARK Online

 

 

 

|Server-3

 

 

 

 

watch now

 

 

Uploaded By Site DX-TV.com

 

 

Show Info This Show

 

 

Complete name : AEW.DARK.5th.Oct.2021.720p.WEBRip.h264-TJ.mp4
Format : MPEG-4
Format profile : Base Media
Codec ID : is1/mp41)
File size : 1.34 GiB
Duration : 1 h 24 min
Overall bit rate : 2 268 kb/s

AEW DARK Online

Video
ID : 1
Format : AVC
Duration : 1 h 24 min
Bit rate : 2 132 kb/s
Width : 1 280 pixels
Height : 720 pixels
Display aspect ratio : 16:9
Frame rate mode : Constant
Frame rate : 29.970 (30000/1001) FPS
Color space : YUV
Chroma subsampling : 4:2:0
Bit depth : 8 bits
Scan type : Progressive
Bits/(Pixel*Frame) : 0.077
Stream size : 1.26 GiB (94%)
Color range : Limited
Color primaries : BT.709
Transfer characteristics : BT.709
Matrix coefficients : BT.709
Codec configuration box : avcC

AEW DARK Online

Audio
ID : 2
Format : AAC LC
Format/Info : Advanced Audio
Codec ID : mp4a-40-2
Duration : 1 h 24 min
Bit rate mode : Constant
Bit rate : 128 kb/s
Channel(s) : 2 channels
Channel layout : L R
Sampling rate : 44.1 kHz
Frame rate : 43.066 FPS (1024 SPF)
Compression mode : Lossy
Stream size : 77.6 MiB (6%)
Default : Yes
Alternate group : 1

Complete name : AEW.DARK.5th.Oct.2021.1080p.WEBRip.h264-TJ.mp4
Format : MPEG-4
Format profile : Base Media
Codec ID : is1/mp41)
File size : 2.72 GiB
Duration : 1 h 24 min
Overall bit rate : 4 596 kb/s

AEW DARK Online

Video
ID : 1
Format : AVC
Duration : 1 h 24 min
Bit rate : 4 460 kb/s
Width : 1 920 pixels
Height : 1 080 pixels
Display aspect ratio : 16:9
Frame rate mode : Constant
Frame rate : 29.970 (30000/1001) FPS
Color space : YUV
Chroma subsampling : 4:2:0
Bit depth : 8 bits
Scan type : Progressive
Bits/(Pixel*Frame) : 0.072
Stream size : 2.64 GiB (97%)
Color range : Limited
Color primaries : BT.709
Transfer characteristics : BT.709
Matrix coefficients : BT.709
Codec configuration box : avcC

AEW DARK Online

Audio
ID : 2
Format : AAC LC
Codec ID : mp4a-40-2
Duration : 1 h 24 min
Bit rate mode : Constant
Bit rate : 128 kb/s
Channel(s) : 2 channels
Channel layout : L R
Sampling rate : 44.1 kHz
Frame rate : 43.066 FPS (1024 SPF)
Compression mode : Lossy
Stream size : 77.6 MiB (3%)
Default : Yes
Alternate group : 1

 

Audio
ID : 2
Format : AAC LC
Codec ID : mp4a-40-2
Duration : 1 h 24 min
Bit rate mode : Constant
Bit rate : 128 kb/s
Channel(s) : 2 channels
Channel layout : L R
Sampling rate : 44.1 kHz
Frame rate : 43.066 FPS (1024 SPF)
Compression mode : Lossy
Stream size : 77.6 MiB (3%)
Default : Yes
Alternate group : 1

[collapse]

 

 

https://dx-tv.com/

Leave a Reply

Your email address will not be published. Required fields are marked *

This site uses Akismet to reduce spam. Learn how your comment data is processed.