AEW DARK Free 29th June 2021 720p Online Replay DX-TV

AEW DARK Free

 AEW DARK Free

 

 

 

Download Links with premium High Speed


 

Dopapk

 

 

Show Links

 

http://shrt10.com/vsXBbHl
http://shrt10.com/Ilq00o6

 

[collapse]

 

 

Nitroflare

 

 

Show Links

 

http://shrt10.com/U5rnBh93
http://shrt10.com/DmwU1eSh

 

[collapse]

 

 

Rapidgator

 

 

Show Links

 

http://shrt10.com/LITyD7p
http://shrt10.com/wm1kmb

 

[collapse]

 

 

Uploaded

 

 

Show Links

 

http://shrt10.com/0cfQP1qV
http://shrt10.com/noVATc

 

[collapse]

 

 

Watch online

 

Server 1

 

 

 

 

AEW DARK Free

 

 

 

 

Server-2

 

 

 

 

watch now

 

 

 

|Server-4

 

 

 

 

watch now

 

 

Uploaded By Site DX-TV.com

 

 

Show Info This Show

 

 

Complete name : AEW.DARK.29th.June.2021.1080p.WEBRip.h264-TJ.mkv
Format : Matroska
Format version : Version 4
File size : 2.86 GiB
Duration : 1 h 32 min
Overall bit rate : 4 443 kb/s
Writing application : Lavf57.83.100

AEW DARK Free

Video
ID : 1
Format : AVC
Format/Info : Advanced Video
Duration : 1 h 32 min
Width : 1 920 pixels
Height : 1 080 pixels
Display aspect ratio : 16:9
Frame rate mode : Constant
Frame rate : 29.970 (30000/1001) FPS
Color space : YUV
Chroma subsampling : 4:2:0
Bit depth : 8 bits
Scan type : Progressive
Default : Yes
Forced : No
Color range : Limited
Color primaries : BT.709
Transfer characteristics : BT.709
Matrix coefficients : BT.709

AEW DARK Free

Audio
ID : 2
Format : AAC LC
Format/Info : Advanced Audio
Codec ID : A_AAC-2
Duration : 1 h 32 min
Channel(s) : 2 channels
Channel layout : L R
Sampling rate : 44.1 kHz
Frame rate : 43.066 FPS
Compression mode : Lossy
Language : English
Default : Yes
Forced : No

Complete name : AEW.DARK.29th.June.2021.720p.WEBRip.h264-TJ.mp4
Format : MPEG-4
Format profile : Base Media
Codec ID : isom
File size : 1.43 GiB
Duration : 1 h 32 min
Overall bit rate : 2 223 kb/s

AEW DARK Free

Video
ID : 1
Format : AVC
Format/Info : Advanced Video
Duration : 1 h 32 min
Duration_FirstFrame : -33 ms
Bit rate : 2 088 kb/s
Width : 1 280 pixels
Height : 720 pixels
Display aspect ratio : 16:9
Frame rate mode : Variable
Frame rate : 29.970 FPS
Minimum frame rate : 29.970 FPS
Maximum frame rate : 29.990 FPS
Color space : YUV
Chroma subsampling : 4:2:0
Bit depth : 8 bits
Scan type : Progressive
Bits/(Pixel*Frame) : 0.076
Stream size : 1.35 GiB (94%)
Color range : Limited
Color primaries : BT.709
Transfer characteristics : BT.709
Matrix coefficients : BT.709
Codec configuration box : avcC

AEW DARK Free

Audio
ID : 2
Format : AAC LC
Format/Info : Advanced Audio
Codec ID : mp4a-40-2
Duration : 1 h 32 min
Bit rate mode : Constant
Bit rate : 128 kb/s
Channel(s) : 2 channels
Channel layout : L R
Sampling rate : 44.1 kHz
Frame rate : 43.066 FPS
Compression mode : Lossy
Stream size : 84.5 MiB (6%)
Default : Yes
Alternate group : 1

AEW DARK Free

Complete name : AEW.DARK.29th.June.2021.1080p.WEBRip.h264-TJ.mkv
Format : Matroska
Format version : Version 4
File size : 2.86 GiB
Duration : 1 h 32 min
Overall bit rate : 4 443 kb/s
Writing application : Lavf57.83.100

AEW DARK Free

Video
ID : 1
Format : AVC
Format/Info : Advanced Video
Duration : 1 h 32 min
Width : 1 920 pixels
Height : 1 080 pixels
Display aspect ratio : 16:9
Frame rate mode : Constant
Frame rate : 29.970 (30000/1001) FPS
Color space : YUV
Chroma subsampling : 4:2:0
Bit depth : 8 bits
Scan type : Progressive
Default : Yes
Forced : No
Color range : Limited
Color primaries : BT.709
Transfer characteristics : BT.709
Matrix coefficients : BT.709

AEW DARK Free

Audio
ID : 2
Format : AAC LC
Format/Info : Advanced Audio
Codec ID : A_AAC-2
Duration : 1 h 32 min
Channel(s) : 2 channels
Channel layout : L R
Sampling rate : 44.1 kHz
Frame rate : 43.066 FPS
Compression mode : Lossy
Language : English
Default : Yes
Forced : No

Complete name : AEW.DARK.29th.June.2021.720p.WEBRip.h264-TJ.mp4
Format : MPEG-4
Format profile : Base Media
Codec ID : isom
File size : 1.43 GiB
Duration : 1 h 32 min
Overall bit rate : 2 223 kb/s

AEW DARK Free

Video
ID : 1
Format : AVC
Format/Info : Advanced Video
Duration : 1 h 32 min
Duration_FirstFrame : -33 ms
Bit rate : 2 088 kb/s
Width : 1 280 pixels
Height : 720 pixels
Display aspect ratio : 16:9
Frame rate mode : Variable
Frame rate : 29.970 FPS
Minimum frame rate : 29.970 FPS
Maximum frame rate : 29.990 FPS
Color space : YUV
Chroma subsampling : 4:2:0
Bit depth : 8 bits
Scan type : Progressive
Bits/(Pixel*Frame) : 0.076
Stream size : 1.35 GiB (94%)
Color range : Limited
Color primaries : BT.709
Transfer characteristics : BT.709
Matrix coefficients : BT.709
Codec configuration box : avcC

AEW DARK Free

Audio
ID : 2
Format : AAC LC
Format/Info : Advanced Audio
Codec ID : mp4a-40-2
Duration : 1 h 32 min
Bit rate mode : Constant
Bit rate : 128 kb/s
Channel(s) : 2 channels
Channel layout : L R
Sampling rate : 44.1 kHz
Frame rate : 43.066 FPS
Compression mode : Lossy
Stream size : 84.5 MiB (6%)
Default : Yes
Alternate group : 1

AEW DARK Free

Complete name : AEW.DARK.29th.June.2021.1080p.WEBRip.h264-TJ.mkv
Format : Matroska
Format version : Version 4
File size : 2.86 GiB
Duration : 1 h 32 min
Overall bit rate : 4 443 kb/s
Writing application : Lavf57.83.100

AEW DARK Free

Video
ID : 1
Format : AVC
Format/Info : Advanced Video
Duration : 1 h 32 min
Width : 1 920 pixels
Height : 1 080 pixels
Display aspect ratio : 16:9
Frame rate mode : Constant
Frame rate : 29.970 (30000/1001) FPS
Color space : YUV
Chroma subsampling : 4:2:0
Bit depth : 8 bits
Scan type : Progressive
Default : Yes
Forced : No
Color range : Limited
Color primaries : BT.709
Transfer characteristics : BT.709
Matrix coefficients : BT.709

AEW DARK Free

Audio
ID : 2
Format : AAC LC
Format/Info : Advanced Audio
Codec ID : A_AAC-2
Duration : 1 h 32 min
Channel(s) : 2 channels
Channel layout : L R
Sampling rate : 44.1 kHz
Frame rate : 43.066 FPS
Compression mode : Lossy
Language : English
Default : Yes
Forced : No

Complete name : AEW.DARK.29th.June.2021.720p.WEBRip.h264-TJ.mp4
Format : MPEG-4
Format profile : Base Media
Codec ID : isom
File size : 1.43 GiB
Duration : 1 h 32 min
Overall bit rate : 2 223 kb/s

AEW DARK Free

Video
ID : 1
Format : AVC
Format/Info : Advanced Video
Duration : 1 h 32 min
Duration_FirstFrame : -33 ms
Bit rate : 2 088 kb/s
Width : 1 280 pixels
Height : 720 pixels
Display aspect ratio : 16:9
Frame rate mode : Variable
Frame rate : 29.970 FPS
Minimum frame rate : 29.970 FPS
Maximum frame rate : 29.990 FPS
Color space : YUV
Chroma subsampling : 4:2:0
Bit depth : 8 bits
Scan type : Progressive
Bits/(Pixel*Frame) : 0.076
Stream size : 1.35 GiB (94%)
Color range : Limited
Color primaries : BT.709
Transfer characteristics : BT.709
Matrix coefficients : BT.709
Codec configuration box : avcC

AEW DARK Free

Audio
ID : 2
Format : AAC LC
Format/Info : Advanced Audio
Codec ID : mp4a-40-2
Duration : 1 h 32 min
Bit rate mode : Constant
Bit rate : 128 kb/s
Channel(s) : 2 channels
Channel layout : L R
Sampling rate : 44.1 kHz
Frame rate : 43.066 FPS
Compression mode : Lossy
Stream size : 84.5 MiB (6%)
Default : Yes
Alternate group : 1

AEW DARK Free

Complete name : AEW.DARK.29th.June.2021.1080p.WEBRip.h264-TJ.mkv
Format : Matroska
Format version : Version 4
File size : 2.86 GiB
Duration : 1 h 32 min
Overall bit rate : 4 443 kb/s
Writing application : Lavf57.83.100

AEW DARK Free

Video
ID : 1
Format : AVC
Format/Info : Advanced Video
Duration : 1 h 32 min
Width : 1 920 pixels
Height : 1 080 pixels
Display aspect ratio : 16:9
Frame rate mode : Constant
Frame rate : 29.970 (30000/1001) FPS
Color space : YUV
Chroma subsampling : 4:2:0
Bit depth : 8 bits
Scan type : Progressive
Default : Yes
Forced : No
Color range : Limited
Color primaries : BT.709
Transfer characteristics : BT.709
Matrix coefficients : BT.709

AEW DARK Free

Audio
ID : 2
Format : AAC LC
Format/Info : Advanced Audio
Codec ID : A_AAC-2
Duration : 1 h 32 min
Channel(s) : 2 channels
Channel layout : L R
Sampling rate : 44.1 kHz
Frame rate : 43.066 FPS
Compression mode : Lossy
Language : English
Default : Yes
Forced : No

Complete name : AEW.DARK.29th.June.2021.720p.WEBRip.h264-TJ.mp4
Format : MPEG-4
Format profile : Base Media
Codec ID : isom
File size : 1.43 GiB
Duration : 1 h 32 min
Overall bit rate : 2 223 kb/s

AEW DARK Free

Video
ID : 1
Format : AVC
Format/Info : Advanced Video
Duration : 1 h 32 min
Duration_FirstFrame : -33 ms
Bit rate : 2 088 kb/s
Width : 1 280 pixels
Height : 720 pixels
Display aspect ratio : 16:9
Frame rate mode : Variable
Frame rate : 29.970 FPS
Minimum frame rate : 29.970 FPS
Maximum frame rate : 29.990 FPS
Color space : YUV
Chroma subsampling : 4:2:0
Bit depth : 8 bits
Scan type : Progressive
Bits/(Pixel*Frame) : 0.076
Stream size : 1.35 GiB (94%)
Color range : Limited
Color primaries : BT.709
Transfer characteristics : BT.709
Matrix coefficients : BT.709
Codec configuration box : avcC

AEW DARK Free

Audio
ID : 2
Format : AAC LC
Format/Info : Advanced Audio
Codec ID : mp4a-40-2
Duration : 1 h 32 min
Bit rate mode : Constant
Bit rate : 128 kb/s
Channel(s) : 2 channels
Channel layout : L R
Sampling rate : 44.1 kHz
Frame rate : 43.066 FPS
Compression mode : Lossy
Stream size : 84.5 MiB (6%)
Default : Yes
Alternate group : 1

AEW DARK Free

Complete name : AEW.DARK.29th.June.2021.1080p.WEBRip.h264-TJ.mkv
Format : Matroska
Format version : Version 4
File size : 2.86 GiB
Duration : 1 h 32 min
Overall bit rate : 4 443 kb/s
Writing application : Lavf57.83.100

AEW DARK Free

Video
ID : 1
Format : AVC
Format/Info : Advanced Video
Duration : 1 h 32 min
Width : 1 920 pixels
Height : 1 080 pixels
Display aspect ratio : 16:9
Frame rate mode : Constant
Frame rate : 29.970 (30000/1001) FPS
Color space : YUV
Chroma subsampling : 4:2:0
Bit depth : 8 bits
Scan type : Progressive
Default : Yes
Forced : No
Color range : Limited
Color primaries : BT.709
Transfer characteristics : BT.709
Matrix coefficients : BT.709

AEW DARK Free

Audio
ID : 2
Format : AAC LC
Format/Info : Advanced Audio
Codec ID : A_AAC-2
Duration : 1 h 32 min
Channel(s) : 2 channels
Channel layout : L R
Sampling rate : 44.1 kHz
Frame rate : 43.066 FPS
Compression mode : Lossy
Language : English
Default : Yes
Forced : No

Complete name : AEW.DARK.29th.June.2021.720p.WEBRip.h264-TJ.mp4
Format : MPEG-4
Format profile : Base Media
Codec ID : isom
File size : 1.43 GiB
Duration : 1 h 32 min
Overall bit rate : 2 223 kb/s

AEW DARK Free

Video
ID : 1
Format : AVC
Format/Info : Advanced Video
Duration : 1 h 32 min
Duration_FirstFrame : -33 ms
Bit rate : 2 088 kb/s
Width : 1 280 pixels
Height : 720 pixels
Display aspect ratio : 16:9
Frame rate mode : Variable
Frame rate : 29.970 FPS
Minimum frame rate : 29.970 FPS
Maximum frame rate : 29.990 FPS
Color space : YUV
Chroma subsampling : 4:2:0
Bit depth : 8 bits
Scan type : Progressive
Bits/(Pixel*Frame) : 0.076
Stream size : 1.35 GiB (94%)
Color range : Limited
Color primaries : BT.709
Transfer characteristics : BT.709
Matrix coefficients : BT.709
Codec configuration box : avcC

AEW DARK Free

Audio
ID : 2
Format : AAC LC
Format/Info : Advanced Audio
Codec ID : mp4a-40-2
Duration : 1 h 32 min
Bit rate mode : Constant
Bit rate : 128 kb/s
Channel(s) : 2 channels
Channel layout : L R
Sampling rate : 44.1 kHz
Frame rate : 43.066 FPS
Compression mode : Lossy
Stream size : 84.5 MiB (6%)
Default : Yes
Alternate group : 1

AEW DARK Free

Complete name : AEW.DARK.29th.June.2021.1080p.WEBRip.h264-TJ.mkv
Format : Matroska
Format version : Version 4
File size : 2.86 GiB
Duration : 1 h 32 min
Overall bit rate : 4 443 kb/s
Writing application : Lavf57.83.100

AEW DARK Free

Video
ID : 1
Format : AVC
Format/Info : Advanced Video
Duration : 1 h 32 min
Width : 1 920 pixels
Height : 1 080 pixels
Display aspect ratio : 16:9
Frame rate mode : Constant
Frame rate : 29.970 (30000/1001) FPS
Color space : YUV
Chroma subsampling : 4:2:0
Bit depth : 8 bits
Scan type : Progressive
Default : Yes
Forced : No
Color range : Limited
Color primaries : BT.709
Transfer characteristics : BT.709
Matrix coefficients : BT.709

AEW DARK Free

Audio
ID : 2
Format : AAC LC
Format/Info : Advanced Audio
Codec ID : A_AAC-2
Duration : 1 h 32 min
Channel(s) : 2 channels
Channel layout : L R
Sampling rate : 44.1 kHz
Frame rate : 43.066 FPS
Compression mode : Lossy
Language : English
Default : Yes
Forced : No

Complete name : AEW.DARK.29th.June.2021.720p.WEBRip.h264-TJ.mp4
Format : MPEG-4
Format profile : Base Media
Codec ID : isom
File size : 1.43 GiB
Duration : 1 h 32 min
Overall bit rate : 2 223 kb/s

AEW DARK Free

Video
ID : 1
Format : AVC
Format/Info : Advanced Video
Duration : 1 h 32 min
Duration_FirstFrame : -33 ms
Bit rate : 2 088 kb/s
Width : 1 280 pixels
Height : 720 pixels
Display aspect ratio : 16:9
Frame rate mode : Variable
Frame rate : 29.970 FPS
Minimum frame rate : 29.970 FPS
Maximum frame rate : 29.990 FPS
Color space : YUV
Chroma subsampling : 4:2:0
Bit depth : 8 bits
Scan type : Progressive
Bits/(Pixel*Frame) : 0.076
Stream size : 1.35 GiB (94%)
Color range : Limited
Color primaries : BT.709
Transfer characteristics : BT.709
Matrix coefficients : BT.709
Codec configuration box : avcC

AEW DARK Free

Audio
ID : 2
Format : AAC LC
Format/Info : Advanced Audio
Codec ID : mp4a-40-2
Duration : 1 h 32 min
Bit rate mode : Constant
Bit rate : 128 kb/s
Channel(s) : 2 channels
Channel layout : L R
Sampling rate : 44.1 kHz
Frame rate : 43.066 FPS
Compression mode : Lossy
Stream size : 84.5 MiB (6%)
Default : Yes
Alternate group : 1

AEW DARK Free

Complete name : AEW.DARK.29th.June.2021.1080p.WEBRip.h264-TJ.mkv
Format : Matroska
Format version : Version 4
File size : 2.86 GiB
Duration : 1 h 32 min
Overall bit rate : 4 443 kb/s
Writing application : Lavf57.83.100

AEW DARK Free

Video
ID : 1
Format : AVC
Format/Info : Advanced Video
Duration : 1 h 32 min
Width : 1 920 pixels
Height : 1 080 pixels
Display aspect ratio : 16:9
Frame rate mode : Constant
Frame rate : 29.970 (30000/1001) FPS
Color space : YUV
Chroma subsampling : 4:2:0
Bit depth : 8 bits
Scan type : Progressive
Default : Yes
Forced : No
Color range : Limited
Color primaries : BT.709
Transfer characteristics : BT.709
Matrix coefficients : BT.709

AEW DARK Free

Audio
ID : 2
Format : AAC LC
Format/Info : Advanced Audio
Codec ID : A_AAC-2
Duration : 1 h 32 min
Channel(s) : 2 channels
Channel layout : L R
Sampling rate : 44.1 kHz
Frame rate : 43.066 FPS
Compression mode : Lossy
Language : English
Default : Yes
Forced : No

Complete name : AEW.DARK.29th.June.2021.720p.WEBRip.h264-TJ.mp4
Format : MPEG-4
Format profile : Base Media
Codec ID : isom
File size : 1.43 GiB
Duration : 1 h 32 min
Overall bit rate : 2 223 kb/s

AEW DARK Free

Video
ID : 1
Format : AVC
Format/Info : Advanced Video
Duration : 1 h 32 min
Duration_FirstFrame : -33 ms
Bit rate : 2 088 kb/s
Width : 1 280 pixels
Height : 720 pixels
Display aspect ratio : 16:9
Frame rate mode : Variable
Frame rate : 29.970 FPS
Minimum frame rate : 29.970 FPS
Maximum frame rate : 29.990 FPS
Color space : YUV
Chroma subsampling : 4:2:0
Bit depth : 8 bits
Scan type : Progressive
Bits/(Pixel*Frame) : 0.076
Stream size : 1.35 GiB (94%)
Color range : Limited
Color primaries : BT.709
Transfer characteristics : BT.709
Matrix coefficients : BT.709
Codec configuration box : avcC

AEW DARK Free

Audio
ID : 2
Format : AAC LC
Format/Info : Advanced Audio
Codec ID : mp4a-40-2
Duration : 1 h 32 min
Bit rate mode : Constant
Bit rate : 128 kb/s
Channel(s) : 2 channels
Channel layout : L R
Sampling rate : 44.1 kHz
Frame rate : 43.066 FPS
Compression mode : Lossy
Stream size : 84.5 MiB (6%)
Default : Yes
Alternate group : 1

AEW DARK Free

Complete name : AEW.DARK.29th.June.2021.1080p.WEBRip.h264-TJ.mkv
Format : Matroska
Format version : Version 4
File size : 2.86 GiB
Duration : 1 h 32 min
Overall bit rate : 4 443 kb/s
Writing application : Lavf57.83.100

AEW DARK Free

Video
ID : 1
Format : AVC
Format/Info : Advanced Video
Duration : 1 h 32 min
Width : 1 920 pixels
Height : 1 080 pixels
Display aspect ratio : 16:9
Frame rate mode : Constant
Frame rate : 29.970 (30000/1001) FPS
Color space : YUV
Chroma subsampling : 4:2:0
Bit depth : 8 bits
Scan type : Progressive
Default : Yes
Forced : No
Color range : Limited
Color primaries : BT.709
Transfer characteristics : BT.709
Matrix coefficients : BT.709

AEW DARK Free

Audio
ID : 2
Format : AAC LC
Format/Info : Advanced Audio
Codec ID : A_AAC-2
Duration : 1 h 32 min
Channel(s) : 2 channels
Channel layout : L R
Sampling rate : 44.1 kHz
Frame rate : 43.066 FPS
Compression mode : Lossy
Language : English
Default : Yes
Forced : No

Complete name : AEW.DARK.29th.June.2021.720p.WEBRip.h264-TJ.mp4
Format : MPEG-4
Format profile : Base Media
Codec ID : isom
File size : 1.43 GiB
Duration : 1 h 32 min
Overall bit rate : 2 223 kb/s

AEW DARK Free

Video
ID : 1
Format : AVC
Format/Info : Advanced Video
Duration : 1 h 32 min
Duration_FirstFrame : -33 ms
Bit rate : 2 088 kb/s
Width : 1 280 pixels
Height : 720 pixels
Display aspect ratio : 16:9
Frame rate mode : Variable
Frame rate : 29.970 FPS
Minimum frame rate : 29.970 FPS
Maximum frame rate : 29.990 FPS
Color space : YUV
Chroma subsampling : 4:2:0
Bit depth : 8 bits
Scan type : Progressive
Bits/(Pixel*Frame) : 0.076
Stream size : 1.35 GiB (94%)
Color range : Limited
Color primaries : BT.709
Transfer characteristics : BT.709
Matrix coefficients : BT.709
Codec configuration box : avcC

AEW DARK Free

Audio
ID : 2
Format : AAC LC
Format/Info : Advanced Audio
Codec ID : mp4a-40-2
Duration : 1 h 32 min
Bit rate mode : Constant
Bit rate : 128 kb/s
Channel(s) : 2 channels
Channel layout : L R
Sampling rate : 44.1 kHz
Frame rate : 43.066 FPS
Compression mode : Lossy
Stream size : 84.5 MiB (6%)
Default : Yes
Alternate group : 1

AEW DARK Free

Complete name : AEW.DARK.29th.June.2021.1080p.WEBRip.h264-TJ.mkv
Format : Matroska
Format version : Version 4
File size : 2.86 GiB
Duration : 1 h 32 min
Overall bit rate : 4 443 kb/s
Writing application : Lavf57.83.100

AEW DARK Free

Video
ID : 1
Format : AVC
Format/Info : Advanced Video
Duration : 1 h 32 min
Width : 1 920 pixels
Height : 1 080 pixels
Display aspect ratio : 16:9
Frame rate mode : Constant
Frame rate : 29.970 (30000/1001) FPS
Color space : YUV
Chroma subsampling : 4:2:0
Bit depth : 8 bits
Scan type : Progressive
Default : Yes
Forced : No
Color range : Limited
Color primaries : BT.709
Transfer characteristics : BT.709
Matrix coefficients : BT.709

AEW DARK Free

Audio
ID : 2
Format : AAC LC
Format/Info : Advanced Audio
Codec ID : A_AAC-2
Duration : 1 h 32 min
Channel(s) : 2 channels
Channel layout : L R
Sampling rate : 44.1 kHz
Frame rate : 43.066 FPS
Compression mode : Lossy
Language : English
Default : Yes
Forced : No

Complete name : AEW.DARK.29th.June.2021.720p.WEBRip.h264-TJ.mp4
Format : MPEG-4
Format profile : Base Media
Codec ID : isom
File size : 1.43 GiB
Duration : 1 h 32 min
Overall bit rate : 2 223 kb/s

AEW DARK Free

Video
ID : 1
Format : AVC
Format/Info : Advanced Video
Duration : 1 h 32 min
Duration_FirstFrame : -33 ms
Bit rate : 2 088 kb/s
Width : 1 280 pixels
Height : 720 pixels
Display aspect ratio : 16:9
Frame rate mode : Variable
Frame rate : 29.970 FPS
Minimum frame rate : 29.970 FPS
Maximum frame rate : 29.990 FPS
Color space : YUV
Chroma subsampling : 4:2:0
Bit depth : 8 bits
Scan type : Progressive
Bits/(Pixel*Frame) : 0.076
Stream size : 1.35 GiB (94%)
Color range : Limited
Color primaries : BT.709
Transfer characteristics : BT.709
Matrix coefficients : BT.709
Codec configuration box : avcC

AEW DARK Free

Audio
ID : 2
Format : AAC LC
Format/Info : Advanced Audio
Codec ID : mp4a-40-2
Duration : 1 h 32 min
Bit rate mode : Constant
Bit rate : 128 kb/s
Channel(s) : 2 channels
Channel layout : L R
Sampling rate : 44.1 kHz
Frame rate : 43.066 FPS
Compression mode : Lossy
Stream size : 84.5 MiB (6%)
Default : Yes
Alternate group : 1

AEW DARK Free

Complete name : AEW.DARK.29th.June.2021.1080p.WEBRip.h264-TJ.mkv
Format : Matroska
Format version : Version 4
File size : 2.86 GiB
Duration : 1 h 32 min
Overall bit rate : 4 443 kb/s
Writing application : Lavf57.83.100

AEW DARK Free

Video
ID : 1
Format : AVC
Format/Info : Advanced Video
Duration : 1 h 32 min
Width : 1 920 pixels
Height : 1 080 pixels
Display aspect ratio : 16:9
Frame rate mode : Constant
Frame rate : 29.970 (30000/1001) FPS
Color space : YUV
Chroma subsampling : 4:2:0
Bit depth : 8 bits
Scan type : Progressive
Default : Yes
Forced : No
Color range : Limited
Color primaries : BT.709
Transfer characteristics : BT.709
Matrix coefficients : BT.709

AEW DARK Free

Audio
ID : 2
Format : AAC LC
Format/Info : Advanced Audio
Codec ID : A_AAC-2
Duration : 1 h 32 min
Channel(s) : 2 channels
Channel layout : L R
Sampling rate : 44.1 kHz
Frame rate : 43.066 FPS
Compression mode : Lossy
Language : English
Default : Yes
Forced : No

Complete name : AEW.DARK.29th.June.2021.720p.WEBRip.h264-TJ.mp4
Format : MPEG-4
Format profile : Base Media
Codec ID : isom
File size : 1.43 GiB
Duration : 1 h 32 min
Overall bit rate : 2 223 kb/s

AEW DARK Free

Video
ID : 1
Format : AVC
Format/Info : Advanced Video
Duration : 1 h 32 min
Duration_FirstFrame : -33 ms
Bit rate : 2 088 kb/s
Width : 1 280 pixels
Height : 720 pixels
Display aspect ratio : 16:9
Frame rate mode : Variable
Frame rate : 29.970 FPS
Minimum frame rate : 29.970 FPS
Maximum frame rate : 29.990 FPS
Color space : YUV
Chroma subsampling : 4:2:0
Bit depth : 8 bits
Scan type : Progressive
Bits/(Pixel*Frame) : 0.076
Stream size : 1.35 GiB (94%)
Color range : Limited
Color primaries : BT.709
Transfer characteristics : BT.709
Matrix coefficients : BT.709
Codec configuration box : avcC

AEW DARK Free

Audio
ID : 2
Format : AAC LC
Format/Info : Advanced Audio
Codec ID : mp4a-40-2
Duration : 1 h 32 min
Bit rate mode : Constant
Bit rate : 128 kb/s
Channel(s) : 2 channels
Channel layout : L R
Sampling rate : 44.1 kHz
Frame rate : 43.066 FPS
Compression mode : Lossy
Stream size : 84.5 MiB (6%)
Default : Yes
Alternate group : 1

AEW DARK Free

Complete name : AEW.DARK.29th.June.2021.1080p.WEBRip.h264-TJ.mkv
Format : Matroska
Format version : Version 4
File size : 2.86 GiB
Duration : 1 h 32 min
Overall bit rate : 4 443 kb/s
Writing application : Lavf57.83.100

AEW DARK Free

Video
ID : 1
Format : AVC
Format/Info : Advanced Video
Duration : 1 h 32 min
Width : 1 920 pixels
Height : 1 080 pixels
Display aspect ratio : 16:9
Frame rate mode : Constant
Frame rate : 29.970 (30000/1001) FPS
Color space : YUV
Chroma subsampling : 4:2:0
Bit depth : 8 bits
Scan type : Progressive
Default : Yes
Forced : No
Color range : Limited
Color primaries : BT.709
Transfer characteristics : BT.709
Matrix coefficients : BT.709

AEW DARK Free

Audio
ID : 2
Format : AAC LC
Format/Info : Advanced Audio
Codec ID : A_AAC-2
Duration : 1 h 32 min
Channel(s) : 2 channels
Channel layout : L R
Sampling rate : 44.1 kHz
Frame rate : 43.066 FPS
Compression mode : Lossy
Language : English
Default : Yes
Forced : No

Complete name : AEW.DARK.29th.June.2021.720p.WEBRip.h264-TJ.mp4
Format : MPEG-4
Format profile : Base Media
Codec ID : isom
File size : 1.43 GiB
Duration : 1 h 32 min
Overall bit rate : 2 223 kb/s

AEW DARK Free

Video
ID : 1
Format : AVC
Format/Info : Advanced Video
Duration : 1 h 32 min
Duration_FirstFrame : -33 ms
Bit rate : 2 088 kb/s
Width : 1 280 pixels
Height : 720 pixels
Display aspect ratio : 16:9
Frame rate mode : Variable
Frame rate : 29.970 FPS
Minimum frame rate : 29.970 FPS
Maximum frame rate : 29.990 FPS
Color space : YUV
Chroma subsampling : 4:2:0
Bit depth : 8 bits
Scan type : Progressive
Bits/(Pixel*Frame) : 0.076
Stream size : 1.35 GiB (94%)
Color range : Limited
Color primaries : BT.709
Transfer characteristics : BT.709
Matrix coefficients : BT.709
Codec configuration box : avcC

AEW DARK Free

Audio
ID : 2
Format : AAC LC
Format/Info : Advanced Audio
Codec ID : mp4a-40-2
Duration : 1 h 32 min
Bit rate mode : Constant
Bit rate : 128 kb/s
Channel(s) : 2 channels
Channel layout : L R
Sampling rate : 44.1 kHz
Frame rate : 43.066 FPS
Compression mode : Lossy
Stream size : 84.5 MiB (6%)
Default : Yes
Alternate group : 1

AEW DARK Free

Complete name : AEW.DARK.29th.June.2021.1080p.WEBRip.h264-TJ.mkv
Format : Matroska
Format version : Version 4
File size : 2.86 GiB
Duration : 1 h 32 min
Overall bit rate : 4 443 kb/s
Writing application : Lavf57.83.100

AEW DARK Free

Video
ID : 1
Format : AVC
Format/Info : Advanced Video
Duration : 1 h 32 min
Width : 1 920 pixels
Height : 1 080 pixels
Display aspect ratio : 16:9
Frame rate mode : Constant
Frame rate : 29.970 (30000/1001) FPS
Color space : YUV
Chroma subsampling : 4:2:0
Bit depth : 8 bits
Scan type : Progressive
Default : Yes
Forced : No
Color range : Limited
Color primaries : BT.709
Transfer characteristics : BT.709
Matrix coefficients : BT.709

AEW DARK Free

Audio
ID : 2
Format : AAC LC
Format/Info : Advanced Audio
Codec ID : A_AAC-2
Duration : 1 h 32 min
Channel(s) : 2 channels
Channel layout : L R
Sampling rate : 44.1 kHz
Frame rate : 43.066 FPS
Compression mode : Lossy
Language : English
Default : Yes
Forced : No

Complete name : AEW.DARK.29th.June.2021.720p.WEBRip.h264-TJ.mp4
Format : MPEG-4
Format profile : Base Media
Codec ID : isom
File size : 1.43 GiB
Duration : 1 h 32 min
Overall bit rate : 2 223 kb/s

AEW DARK Free

Video
ID : 1
Format : AVC
Format/Info : Advanced Video
Duration : 1 h 32 min
Duration_FirstFrame : -33 ms
Bit rate : 2 088 kb/s
Width : 1 280 pixels
Height : 720 pixels
Display aspect ratio : 16:9
Frame rate mode : Variable
Frame rate : 29.970 FPS
Minimum frame rate : 29.970 FPS
Maximum frame rate : 29.990 FPS
Color space : YUV
Chroma subsampling : 4:2:0
Bit depth : 8 bits
Scan type : Progressive
Bits/(Pixel*Frame) : 0.076
Stream size : 1.35 GiB (94%)
Color range : Limited
Color primaries : BT.709
Transfer characteristics : BT.709
Matrix coefficients : BT.709
Codec configuration box : avcC

AEW DARK Free

Audio
ID : 2
Format : AAC LC
Format/Info : Advanced Audio
Codec ID : mp4a-40-2
Duration : 1 h 32 min
Bit rate mode : Constant
Bit rate : 128 kb/s
Channel(s) : 2 channels
Channel layout : L R
Sampling rate : 44.1 kHz
Frame rate : 43.066 FPS
Compression mode : Lossy
Stream size : 84.5 MiB (6%)
Default : Yes
Alternate group : 1

AEW DARK Free

 

[collapse]

 

 

https://dx-tv.com/

Leave a Reply

Your email address will not be published. Required fields are marked *

This site uses Akismet to reduce spam. Learn how your comment data is processed.

Previous Post
The Ultimate Fighter 29

The Ultimate Fighter S29E05 1080p Online Free

Next Post
NWA Powerrr

NWA Powerrr Episode 33 Online Free Replay