AEW Dark Elevation 2021 09 27 Full Show Online

AEW Dark Elevation 2021 09 27 1080p Full Show Online Free Replay DX-TV

AEW Dark Elevation

 AEW Dark Elevation

 

 

 

Download Links with premium High Speed
 

 


 

Dopapk

 

 

Show Links

 

 

 

 

Nitroflare

 

 

Show Links

 

 

Rapidgator

 

 

Show Links

 

 

 

Uploaded
 

 

 

Show Links

 

 

 

 

 

Watch aew online

 

Server 1

 

 

 

 

AEW Dark Elevation

 

 

 

 

Server-2

 

 

 

 

watch now

 

 

 

|Server-3

 

 

 

 

watch now

 

 

Uploaded By Site DX-TV.com

 

 

Open Info Show

 

 

Complete name : RiZiN.30.WEB.720p.x264\03. Shinobu Ota vs. Yuta Kubo.mp4
Format : MPEG-4
Format profile : Base Media / Version 2
Codec ID : mp42 (isom/mp42)
File size : 386 MiB
Duration : 24 min 36 s
Overall bit rate mode : Variable
Overall bit rate : 2 192 kb/s
Encoded date : UTC 2021-09-22 21:31:10
Tagged date : UTC 2021-09-22 21:31:10

AEW Dark Elevation

Video
ID : 1
Format : AVC
Codec ID : avc1
Codec ID/Info : Advanced Video
Duration : 24 min 36 s
Bit rate : 2 060 kb/s
Width : 1 280 pixels
Height : 720 pixels
Display aspect ratio : 16:9
Frame rate mode : Constant
Frame rate : 29.970 (30000/1001) FPS
Color space : YUV
Chroma subsampling : 4:2:0
Bit depth : 8 bits
Scan type : Progressive
Bits/(Pixel*Frame) : 0.075
Stream size : 363 MiB (94%)
Encoded date : UTC 2021-09-22 21:31:10
Tagged date : UTC 2021-09-22 21:31:10
Color range : Limited
Color primaries : BT.709
Transfer characteristics : BT.709
Matrix coefficients : BT.709
Codec configuration box : avcC

AEW Dark Elevation

Audio
ID : 2
Format : AAC LC
Format/Info : Advanced Audio Codec Low Complexity
Codec ID : mp4a-40-2
Duration : 24 min 36 s
Bit rate mode : Variable
Bit rate : 128 kb/s
Channel(s) : 2 channels
Channel layout : L R
Sampling rate : 44.1 kHz
Frame rate : 43.066 FPS (1024 SPF)
Compression mode : Lossy
Stream size : 22.5 MiB (6%)
Language : English
Encoded date : UTC 2021-09-22 21:31:10
Tagged date : UTC 2021-09-22 21:31:10

AEW Dark Elevation

ID : 1
Format : AVC
Codec ID : avc1
Codec ID/Info : Advanced Video
Duration : 24 min 36 s
Bit rate : 2 060 kb/s
Width : 1 280 pixels
Height : 720 pixels
Display aspect ratio : 16:9
Frame rate mode : Constant
Frame rate : 29.970 (30000/1001) FPS
Color space : YUV
Chroma subsampling : 4:2:0
Bit depth : 8 bits
Scan type : Progressive
Bits/(Pixel*Frame) : 0.075
Stream size : 363 MiB (94%)
Encoded date : UTC 2021-09-22 21:31:10
Tagged date : UTC 2021-09-22 21:31:10
Color range : Limited
Color primaries : BT.709
Transfer characteristics : BT.709
Matrix coefficients : BT.709
Codec configuration box : avcC

AEW Dark Elevation

Audio
ID : 2
Format : AAC LC
Format/Info : Advanced Audio Codec Low Complexity
Codec ID : mp4a-40-2
Duration : 24 min 36 s
Bit rate mode : Variable
Bit rate : 128 kb/s
Channel(s) : 2 channels
Channel layout : L R
Sampling rate : 44.1 kHz
Frame rate : 43.066 FPS (1024 SPF)
Compression mode : Lossy
Stream size : 22.5 MiB (6%)
Language : English
Encoded date : UTC 2021-09-22 21:31:10
Tagged date : UTC 2021-09-22 21:31:10

https://dx-tv.com/

 

 

 

 

 

You May Also Like

Leave a Reply

Your email address will not be published. Required fields are marked *

This site uses Akismet to reduce spam. Learn how your comment data is processed.