AEW DARK Elevation 2021 09 13 Online Replay

AEW DARK Elevation 2021 09 13 1080p Online Free Replay DX-TV

AEW DARK Elevation

 AEW DARK Elevation

 

 

 

Download Links with premium High Speed
 

 


 

Dopapk

 

 

Show Links

 

 

https://shrt10.com/eeY9LCY

 

 

 

 

 

Nitroflare

 

 

Show Links

 

 

Rapidgator

 

 

Show Links

 

 

 

Uploaded
 

 

 

Show Links

 

 

 

 

 

Watch online

 

Server 1

 

 

 

 

AEW DARK Elevation

 

 

 

 

Server-2

 

 

 

 

watch now

 

 

 

|Server-3

 

 

 

 

watch now

 

 

Uploaded By Site DX-TV.com

 

 

Open Info Show

 

 

Complete name : AEW.DARK.Elevation.13th.Sept.2021.1080p.WEBRip.h264-TJ.mp4
Format : MPEG-4
Format profile : Base Media
Codec ID : isom
File size : 1.28 GiB
Duration : 40 min 33 s
Overall bit rate : 4 509 kb/s

Video
ID : 1
Format : AVC
Duration : 40 min 33 s
Bit rate : 4 374 kb/s
Width : 1 920 pixels AEW DARK Elevation
Height : 1 080 pixels
Display aspect ratio : 16:9
Frame rate mode : Constant
Frame rate : 29.970 (30000/1001) FPS
Color space : YUV
Chroma subsampling : 4:2:0
Bit depth : 8 bits
Scan type : Progressive
Bits/(Pixel*Frame) : 0.070
Stream size : 1.24 GiB (97%)
Color range : Limited
Color primaries : BT.709
Transfer characteristics : BT.709
Matrix coefficients : BT.709
Codec configuration box : avcC

AEW DARK Elevation

Audio
ID : 2
Format : AAC LC
Format/Info : Advanced Audio
Codec ID : mp4a-40-2
AEW DARK Elevation
Bit rate mode : Constant
Bit rate : 128 kb/s
Channel(s) : 2 channels
Channel layout : L R
Sampling rate : 44.1 kHz
Frame rate : 43.066 FPS (1024 SPF)
Compression mode : Lossy
Stream size : 37.1 MiB (3%)
Default : Yes
Alternate group : 1

AEW DARK  

Complete name : AEW.DARK.Elevation.13th.Sept.2021.1080p.WEBRip.h264-TJ.mp4
Format : MPEG-4
Format profile : Base Media
Codec ID : isom
File size : 1.28 GiB
Duration : 40 min 33 s
Overall bit rate : 4 509 kb/s

Video
ID : 1
Format : AVC
Duration : 40 min 33 s
Bit rate : 4 374 kb/s
Width : 1 920 pixels
Height : 1 080 pixels
Display aspect ratio : 16:9
Frame rate mode : Constant
Frame rate : 29.970 (30000/1001) FPS
Color space : YUV
Chroma subsampling : 4:2:0
Bit depth : 8 bits AEW DARK Elevation
Scan type : Progressive
Bits/(Pixel*Frame) : 0.070
Stream size : 1.24 GiB (97%)
Color range : Limited
Color primaries : BT.709
Transfer characteristics : BT.709
Matrix coefficients : BT.709
Codec configuration box : avcC

 DARK Elevation

Audio
ID : 2
Format : AAC LC
Format/Info : Advanced Audio
Codec ID : mp4a-40-2
Duration : 40 min 33 s
Bit rate mode : Constant
Bit rate : 128 kb/s
Channel(s) : 2 channels
Channel layout : L R
Sampling rate : 44.1 kHz
Frame rate : 43.066 FPS (1024 SPF)
Compression mode : Lossy
Stream size : 37.1 MiB (3%)
Default : Yes
Alternate group : 1

https://dx-tv.com/

 

 

 

 

 

Leave a Reply

Your email address will not be published. Required fields are marked *

This site uses Akismet to reduce spam. Learn how your comment data is processed.