AEW DARK 2021 09 28 Full Show Online Free Replay

AEW DARK 2021 09 28 1080p Full Show Online Free Replay DX-TV

AEW DARK 2021

 AEW DARK 2021

 

 

 

Download Links with premium High Speed
 


Dopapk

 

 

Show Links

 

 

http://shrt10.com/mD3WHUs
http://shrt10.com/qPJ9943

 

 

 

 

 

Nitroflare

 

 

Show Links

 

 

http://shrt10.com/Uc9CrpsR
http://shrt10.com/Fl8xgNC

 

 

 

 

Rapidgator

 

 

Show Links

 

 

http://shrt10.com/OATxMEs
http://shrt10.com/lmkQI

 

 

 

 

 

Uploaded
 

 

Show Links

 

 

http://shrt10.com/eKbjH
http://shrt10.com/KThE5xO

 

 

 

 

 

 

 

Watch online

 

Server 1

 

 

 

 

watch now

 

 

 

 

Server-2

 

 

 

 

AEW DARK 2021

 

 

 

|Server-3

 

 

 

 

watch now

 

 

Uploaded By Site DX-TV.com

 

 

Open Info Show

 

 

Complete name : AEW.DARK.28th.Sept.2021.1080p.WEBRip.h264-TJ.mp4
Format : MPEG-4
Format profile : Base Media
Codec ID : /avc1/mp41)
File size : 2.31 GiB
Duration : 1 h 12 min
Overall bit rate : 4 593 kb/s

AEW DARK 2021

Video
ID : 1
Format : AVC
Format/Info : Advanced
Duration : 1 h 12 min
Bit rate : 4 458 kb/s
Width : 1 920 pixels
Height : 1 080 pixels
Display aspect ratio : 16:9
Frame rate mode : Constant
Frame rate : 29.970 (30000/1001) FPS
Color space : YUV
Chroma subsampling : 4:2:0
Bit depth : 8 bits
Scan type : Progressive
Bits/(Pixel*Frame) : 0.072
Stream size : 2.25 GiB (97%)
Color range : Limited
Color primaries : BT.709
Transfer characteristics : BT.709
Matrix coefficients : BT.709
Codec configuration box : avcC

AEW DARK 2021

Audio
ID : 2
Format : AAC LC
Format/Info : Advanced
Codec ID : mp4a-40-2
Duration : 1 h 12 min
Bit rate mode : Constant
Bit rate : 128 kb/s
Channel(s) : 2 channels
Channel layout : L R
Sampling rate : 44.1 kHz
Frame rate : 43.066 FPS (1024 SPF)
Compression mode : Lossy
Stream size : 66.0 MiB (3%)
Language : English
Default : Yes
Alternate group : 1

Complete name : AEW.DARK.28th.Sept.2021.WEBRip.h264-TJ.mp4
Format : MPEG-4
Format profile : Base Media
Codec ID : isom
File size : 620 MiB
Duration : 1 h 12 min
Overall bit rate : 1 202 kb/s

Video
ID : 1
Format : AVC
Duration : 1 h 12 min
Bit rate : 1 067 kb/s
Width : 854 pixels
Height : 480 pixels
Display aspect ratio : 16:9
Frame rate mode : Constant
Frame rate : 29.970 (30000/1001) FPS
Color space : YUV
Chroma subsampling : 4:2:0
Bit depth : 8 bits
Scan type : Progressive
Bits/(Pixel*Frame) : 0.087
Stream size : 550 MiB (89%)
Color range : Limited
Color primaries : BT.709
Transfer characteristics : BT.709
Matrix coefficients : BT.709
Codec configuration box : avcC

AEW DARK 2021

Audio
ID : 2
Format : AAC LC
Format/Info : Advanced Audio
Codec ID : mp4a-40-2
Duration : 1 h 12 min
Bit rate mode : Constant
Bit rate : 128 kb/s
Channel(s) : 2 channels
Channel layout : L R
Sampling rate : 44.1 kHz
Frame rate : 43.066 FPS (1024 SPF)
Compression mode : Lossy
Stream size : 66.0 MiB (11%)
Default : Yes
Alternate group : 1

Complete name : AEW.DARK.28th.Sept.2021.WEBRip.h264-TJ.mp4
Format : MPEG-4
Format profile : Base Media
Codec ID : isom
File size : 620 MiB
Duration : 1 h 12 min
Overall bit rate : 1 202 kb/s

Video
ID : 1
Format : AVC
Duration : 1 h 12 min
Bit rate : 1 067 kb/s
Width : 854 pixels
Height : 480 pixels
Display aspect ratio : 16:9
Frame rate mode : Constant
Frame rate : 29.970 (30000/1001) FPS
Color space : YUV
Chroma subsampling : 4:2:0
Bit depth : 8 bits
Scan type : Progressive
Bits/(Pixel*Frame) : 0.087
Stream size : 550 MiB (89%)
Color range : Limited
Color primaries : BT.709
Transfer characteristics : BT.709
Matrix coefficients : BT.709
Codec configuration box : avcC

AEW DARK 2021

Audio
ID : 2
Format : AAC LC
Format/Info : Advanced Audio
Codec ID : mp4a-40-2
Duration : 1 h 12 min
Bit rate mode : Constant
Bit rate : 128 kb/s
Channel(s) : 2 channels
Channel layout : L R
Sampling rate : 44.1 kHz
Frame rate : 43.066 FPS (1024 SPF)
Compression mode : Lossy
Stream size : 66.0 MiB (11%)
Default : Yes
Alternate group : 1

 

 

https://dx-tv.com/

 

 

 

 

 

Leave a Reply

Your email address will not be published. Required fields are marked *

This site uses Akismet to reduce spam. Learn how your comment data is processed.