AEW DARK 2020 03 24 1080p

Watch AEW DARK 2020 03 24 1080p DX-TV

AEW

 

 AEW

 

 

AEW DARK 2020 03 24 1080p

 

Complete name : AEW.DARK.24th.March.2020.1080p.WEBRip.h264-TJ.mp4
Format : MPEG-4
Format profile : Base Media
Codec ID : isom
File size : 1.65 GiB
Duration : 50 min 46 s
Overall bit rate : 4 665 kb/s
Writing application : AEW

Video
ID : 1
Format : AVC
Duration : 50 min 46 s
FirstFrame : -33 ms
Bit rate : 4 530 kb/s
Width : 1 920 pixels
Height : 1 080 pixels
Display aspect ratio : 16:9
Frame rate mode : AEW
Frame rate : 29.970 FPS
Minimum frame rate : 29.970 FPS
Color space : YUV
Chroma subsampling : 4:2:0
Bit depth : 8 bits
Scan type : AEW
Bits/(Pixel*Frame) : 0.073
Stream size : 1.61 GiB (97%)
Color range : AEW
Color primaries : BT.709
Transfer characteristics : AEW
Matrix coefficients : BT.709
Codec configuration box : avcC

Audio
ID : 2
Format : AAC LC
Format/Info : AEWy
Codec ID : mp4a-40-2
Duration : 50 min 46 s
Bit rate mode : AEW
Bit rate : 128 kb/s
Channel(s) : 2 channels
Channel layout : L R
Sampling rate : 44.1 kHz
Frame rate : 43.066 FPS (1024 SPF)
Compression mode : Lossy
Stream size : 46.5 MiB (3%)
Default : Yes
Alternate group : AEW

 

 

 

Watch online

 

 

Server 1

 

 

 

 

watch now

 

 

 

 

Server 2

 

 

 

watch now

 

 

 

Watch AEW DARK 2020 03 24 1080p

 

 

Uploaded By Site DX-TV.com

 

 

Download with Free LinksĀ 

 

 

1fichier.com

 

 

DDL.to

 

 

rockfile.co

 

 

 

Download with premium account LinksĀ 

 

 

Keep2Share

 

 

mixdrop.co

 

 

alfafile.net

 

 

nitroflare.com

 

 

rapidgator.net

 

 

uploadgig.com

 

 

 

dx-tv.com

 

urlfree.net

Leave a Reply

Your email address will not be published. Required fields are marked *

This site uses Akismet to reduce spam. Learn how your comment data is processed.