AEW DARK 2020/02/11 1080p

Watch AEW DARK 2020/02/11 1080p DX-TV

 

AEW DARK

 

 AEW

 

 

 

 

AEW DARK 2020/02/11 1080p

 

Complete name : AEW.DARK.11th.Feb.2020.1080p.WEBRip.h264-TJ.mp4
Format : MPEG-4
Format profile : Base Media
Codec ID : isom
File size : 1.76 GiB
Duration : 55 min 16 s
Overall bit rate : 4 550 kb/s
Writing application : Lavf58.20.100

Video
ID : 1
Format : AVC
Duration : 55 min 15 s
Duration_FirstFrame : -33 ms
Bit rate : 4 414 kb/s
Width : 1 920 pixels
Height : 1 080 pixels
Display aspect ratio : 16:9
Frame rate mode : Variable
Frame rate : 29.970 FPS
Minimum frame rate : 29.970 FPS
Maximum frame rate : 29.990 FPS
Color space : YUV
Chroma subsampling : 4:2:0
Bit depth : 8 bits
Scan type : Progressive
Bits/(Pixel*Frame) : 0.071
Stream size : 1.70 GiB (97%)
Color range : Limited
Color primaries : BT.709
Transfer characteristics : BT.709
Matrix coefficients : BT.709  DARK
Codec configuration box : avcC

Audio
ID : 2
Format : AAC LC
Format/Info : Advanced Audio Codec Low Complexity
Codec ID : mp4a-40-2
Duration : 55 min 16 s
Bit rate mode : Constant
Bit rate : 128 kb/s
Channel(s) : 2 channels
Channel layout : L R
Sampling rate : 44.1 kHz
Frame rate : 43.066 FPS (1024 SPF)
Compression mode : Lossy
Stream size : 50.6 MiB (3%)
Default : Yes
Alternate group : 1

 

 

 

 

Watch online

 

 

 

Server 1

 

 

 

 

 

 

 

 

Server 2

 

 

 

 

 

 

 

Server–3

 

 

 

 

 

 

 

 

 

AEW DARK 2020/02/11 1080p

 

 

 

Uploaded By Site DX-TV.com

AEW DARK

 

 

1fichier.com 

 

 

DDL.to

 

 

earn4files.com

 

 

rockfile.co

 

 

 

Download with premium account Links 

 

 

Keep2Share

 

 

nitroflare.com

 

 

rapidgator.net

 

 

uploadgig.com

 

 

 

dx-tv.com

 

Leave a Reply

Your email address will not be published. Required fields are marked *

This site uses Akismet to reduce spam. Learn how your comment data is processed.