AEW DARK 12 Jan 2021 1080p DX-TV

AEW DARK 12 Jan 2021 1080p DX-TV

AEW DARK 12 Jan

 AEW DARK 12 Jan

 

Download Links with premium High Speed   

 

 

dropapk.to

http://shrt10.com/3uBmLod
http://shrt10.com/XnhjnZI

 

 

nitroflare.com

http://shrt10.com/gAaz9
http://shrt10.com/tVCgaT

 

 

rapidgator.net

http://shrt10.com/4A67SF
http://shrt10.com/DVBUCB

 

 

uploaded.net

http://shrt10.com/4Q1zT7bA
http://shrt10.com/IoYTrnfNg

 

 

uploadgig.com

http://shrt10.com/BKRFv
http://shrt10.com/Vi0K4yRN

 

Watch AEW DARK online

 

Server 1

 

 

 

 

AEW DARK

 

 

 

 

Server-2

 

 

 

 

watch now

 

 

Uploaded By Site DX-TV.com

 

 

Complete name : AEW.DARK.12th.Jan.2021.1080p.WEBRip.h264-TJ.mp4
Format : MPEG-4
Format profile : Base Media
Codec ID : isom
File size : 2.80 GiB
Duration : 1 h 32 min
Overall bit rate : 4 329 kb/s
Writing application : Lavf57.83.100

AEW DARK

Video
ID : 1
Format : AVC
Format/Info : Advanced Video
Duration : 1 h 32 min
Bit rate : 4 193 kb/s
Width : 1 920 pixels
Height : 1 080 pixels
Display aspect ratio : 16:9
Frame rate mode : Constant
Frame rate : 29.970 FPS
Color space : YUV
Chroma subsampling : 4:2:0
Bit depth : 8 bits
Scan type : Progressive
Bits/(Pixel*Frame) : 0.067
Stream size : 2.72 GiB (97%)
Color range : Limited
Color primaries : BT.709
Transfer characteristics : BT.709
Matrix coefficients : BT.709
Codec configuration box : avc

AEW DARK

Audio
ID : 2
Format : AAC LC
Format/Info : Advanced Audio
Codec ID : mp4a-40-2
Duration : 1 h 32 min
Duration_LastFrame : 1 ms
Bit rate mode : Constant
Bit rate : 128 kb/s
Channel(s) : 2 channels
Channel layout : L R
Sampling rate : 44.1 kHz
Frame rate : 43.066 FPS (1024 SPF)
Compression mode : Lossy
Stream size : 84.9 MiB (3%)
Language : English
Default : Yes
Alternate group : 1

Complete name : AEW.DARK.12th.Jan.2021.720p.WEBRip.h264-TJ.mp4
Format : MPEG-4
Format profile : Base Media
Codec ID : isom
File size : 1.44 GiB
Duration : 1 h 32 min
Overall bit rate : 2 230 kb/s
Writing application : Lavf57.83.100

AEW DARK

Video
ID : 1
Format : AVC
Format/Info : Advanced Video
Duration : 1 h 32 min
Bit rate : 2 094 kb/s
Width : 1 280 pixels
Height : 720 pixels
Display aspect ratio : 16:9
Frame rate mode : Constant
Frame rate : 29.970 (FPS
Color space : YUV
Chroma subsampling : 4:2:0
Bit depth : 8 bits
Scan type : Progressive
Bits/(Pixel*Frame) : 0.076
Stream size : 1.36 GiB (94%)
Color range : Limited
Color primaries : BT.709
Transfer characteristics : BT.709
Matrix coefficients : BT.709
Codec configuration box : avc

AEW DARK

Audio
ID : 2
Format : AAC LC
Format/Info : Advanced Audio
Codec ID : mp4a-40-2
Duration : 1 h 32 min
Duration_LastFrame : 1 ms
Bit rate mode : Constant
Bit rate : 128 kb/s
Channel(s) : 2 channels
Channel layout : L R
Sampling rate : 44.1 kHz
Frame rate : 43.066 FPS (1024 SPF)
Compression mode : Lossy
Stream size : 84.9 MiB (6%)
Language : English
Default : Yes
Alternate group : 1

AEW DARK

 

https://dx-tv.com/

Leave a Reply

Your email address will not be published. Required fields are marked *

This site uses Akismet to reduce spam. Learn how your comment data is processed.