AEW DARK 03 Nov 2020 Full Show Online

Watch AEW DARK 03 Nov 2020 1080p DX-TV

AEW Full Show Online

AEW Full Show Online

 

 

AEW DARK 03 Nov 2020 Full Show Online

 

 

 

Complete name : AEW.DARK.3rd.Nov.2020.1080p.WEBRip.h264-TJ.mp4
Format : MPEG-4
Format profile : Base Media
Codec ID : isom
File size : 4.14 GiB
Duration : 2 h 11 min
Overall bit rate : 4 513 kb/s
Writing application : Lavf57.83

AEW Full Show Online

Video
ID : 1
Format : AVC
Duration : 2 h 11 min
Bit rate : 4 376 kb/s
Width : 1 920 pixels
Height : 1 080 pixels
Display ratio : 16:9
Frame rate mode : Constant
Frame rate : 29.970 FPS
Color space : YUV
Chroma sampling : 4:2:0
Bit depth : 8 bits
Scan type : Progressive
Bits/(Pixel*Frame) : 0.070
Stream size : 4.01 GiB (97%)
Color range : Limited
Color primaries : BT.709
Transfer characteristics : BT.709
Matrix coefficients : BT.709
Codec configuration box : avcC

AEW Full Show Online

Audio
ID : 2
Format : AAC LC
Format/Info : Advanced
Codec ID : mp4a-40-2
Duration : 2 h 11 min
Bit rate mode : Constant
Bit rate : 128 kb/s
Channel(s) : 2 channels
Channel layout : L R
Sampling rate : 44.1 kHz
Frame rate : 43.066 FPS
Compression mode : Lossy
Stream size : 120 MiB (3%)
Language : English
Default : Yes
Alternate group : 1

 

 

 

 

AEW DARK 03 Nov 2020 Full Show Online

 

 

 

Watch online

 

 

Server 1

 

 

 

 

AEW Full Show Online

 

 

 

 

Server-2

 

 

 

watch now

 

 

 

 

Uploaded By Site DX-TV.com

 

 

 

 

Download Free Links with normal and high Speed [ more 14 hosts ]  

 

[su_expand more_text=”Show Hosts Info” less_text=”Close all Info” height=”30″ text_color=”#000000″ link_color=”#e25f8b” link_style=”button” more_icon=”icon: arrow-down” less_icon=”icon: arrow-up”]

 

AEW Full Show Online

hexupload.net – clicknupload.co – www.multiup.org – uptobox.com – anonfiles.com – userscloud.com –

dropapk.to alfafile.net – ddownload.com – rockfile.co – 1fichier.com – filedown.org – katfile.com – filerio.in

 

 

[/su_expand]

 

 

 

http://shrt10.com/y58vRxZ5
http://shrt10.com/SiagD9
http://shrt10.com/TKZ9Ml
http://shrt10.com/THIGO9Q
http://shrt10.com/tdKl1Sa
http://shrt10.com/TsrB3h

 

 

 

Download Links with premium High Speed   

 

AEW Full Show Online

 

 

dropapk.to

 

 

nitroflare.com

 

 

 

rapidgator.net

 

 

 

uploaded.net

 

 

 

uploadgig.com

 

 

 

 

 

dx-tv.com

 

urlfree.net

Leave a Reply

Your email address will not be published. Required fields are marked *

This site uses Akismet to reduce spam. Learn how your comment data is processed.