AEW All Out 2020 The Buy In 1080p Free Online

Watch AEW All Out 2020 The Buy In 1080p Free Online DX-TV

 

AEW All Out 2020 The Buy In

 

 AEW All Out 2020 The Buy In 1080p

 

AEW All Out 2020 The Buy In 1080p Free Online

 

 

 

[su_expand more_text=”Show More Info” less_text=”Close all Info” height=”30″ text_color=”#000000″ link_color=”#e25f8b” link_style=”button” more_icon=”icon: arrow-down” less_icon=”icon: arrow-up”]

 

Complete name : AEW All Out 2020 The Buy In 1080p WEB H264 DX-TV.com.mp4
Format : MPEG-4
Format profile : Base Media
Codec ID : isom
File size : 1.46 GiB
Duration : 1 h 16 min
Overall bit rate : 2 732 kb/s
Writing application : Lavf57

Video
ID : 1
Format : AVC
Duration : 1 h 16 min
Bit rate : 2 600 kb/s
Width : 1 920 pixels
Height : 1 080 pixels
Display aspect ratio : 16:9 AEW All Out 2020 The Buy In
Frame rate mode : Variable
Frame rate : 29.970 FPS
Color space : YUV
Chroma sub-sampling : 4:2:0
Bit depth : 8 bits
Scan type : Progressive
Bits/(Pixel*Frame) : 0.042
Stream size : 1.39 GiB (95%)
Color range : Limited
Color primaries : BT.709
Transfer characteristics : BT.709
Matrix coefficients : BT.709
Codec configuration box : avcC

AEW All Out 2020 The Buy In 1080p Free Online

Audio
ID : 2
Format : AAC LC
Format/Info : Advanced
Codec ID : mp4a-40-2
Duration : 1 h 16 min
Bit rate mode : Variable
Bit rate : 125 kb/s
Maximum bit rate : 128 kb/s
Channel(s) : 2 channels
Channel layout : L R
Sampling rate : 48.0 kHz
Frame rate : 46.875 FPS (1024 SPF)
Compression mode : Lossy
Stream size : 68.8 MiB (5%)
Default : Yes
Alternate group : 1

 All Out 2020 The Buy In 1080p Free Online

For the first time since 2001, WWE has some serious competition. AEW, or All Elite Wrestling, will get its own live TV show on TNT starting Oct. 2, initiating what the wrestling world is already calling the Wednesday Night Wars. Before then, though, AEW puts on All Out, on Saturday Aug. 31, its second major pay-per-view event. AEW All Out 2020 The Buy In

All Out is a successor to All In, a show put together last year by Cody Rhodes and The Young Bucks (Matt and Nick Jackson). Back then the trio wrestled for the Ring of Honor and New Japan Pro Wrestling promotions, with the event designed to prove that wrestlers outside WWE could sell out a 10,000-plus seat arena. And prove that they did, as All In filled up Chicago’s Sears Center Arena and sold 50,000 pay-per-view buys (paywall).

Fast-forward a year and the three, along with Kenny Omega and Jacksonville Jaguars co-founder Tony Khan, have formed their own company, AEW. Their first show was June’s Double or Nothing, which sold out Las Vegas’ MGM Grand Arena and hit around 100,000 buys.

 

 All Out 2020 The Buy In 1080p Free Online

After two smaller shows, Fyter Fest and Fight for the Fallen, All Out is AEW’s biggest show yet, as the main event between Chris Jericho and Adam Page will crown the first AEW Champion.

Jon Moxley, formerly known as Dean Ambrose, was scheduled to wrestle Kenny Omega on the show but had to pull out due to contracting a staph infection. So instead, Omega will take on Pac, known as Neville in WWE. Which, as you’ll know if you’ve watched both guys wrestling, should be bananas. Elsewhere, the Lucha Brothers will defend their AAA Tag Team championships (AAA is Mexico’s biggest wrestling promotion) against the Young Bucks in a ladder match AEW All Out 2020 The Buy In

 

AEW All Out 2020 The Buy In 1080p Free Online

 

 

[/su_expand]

 

 

 

Watch online

 

 

[su_expand more_text=”Open Videos Online” less_text=”Close Videos” height=”0″ text_color=”#0859fe” link_color=”#a74a69″ link_style=”button” more_icon=”icon: play” less_icon=”icon: stop”]

 

 

Server 1

 

 

 

 

watch now

 

 

 

 

Server-2

 

 

 

watch now

 

 

 

 

Server-3

 

 

 

AEW All Out 2020 The Buy In

 

 

 

[/su_expand]
 

 

Uploaded By Site DX-TV.com

 

 

 

Download Links with High Speed   

 

 

[su_expand more_text=”Open Download Links” less_text=”Close all Links” height=”0″ text_color=”#4b9a3e” link_color=”#1b3fa8″ link_style=”button” more_icon=”icon: link” less_icon=”icon: unlink”]
 

Keep2Share

 

 

 

nitroflare.com

 

 

 

rapidgator.net

 

 

 

uploadgig.com

 

 

[/su_expand]
dx-tv.com

 

urlfree.net