A&E Biography Booker T Replay online 1080p

A&E Biography Booker T Replay online 720p/ 1080p DX-TV

A&E Biography Booker T

 A&E Biography Booker T

 

 

 

Download Links with premium High Speed


 

Dopapk

 

 

Show Links

 

http://shrt10.com/TAMne
http://shrt10.com/L1NWtnA
http://shrt10.com/DYdGhv

 

[collapse]

 

 

Nitroflare

 

 

Show Links

 

http://shrt10.com/4KlWeqm
http://shrt10.com/ElxWgV
http://shrt10.com/zEMweMOdC

 

[collapse]

 

 

Rapidgator

 

 

Show Links

 

http://shrt10.com/R3jrkyjQ
http://shrt10.com/SvN7n
http://shrt10.com/HPx8s6STX

 

[collapse]

 

 

Uploaded

 

 

Show Links

 

http://shrt10.com/qHAdlQmNT
http://shrt10.com/S5uch66
http://shrt10.com/0vITDI

 

[collapse]

 

 

Watch online

 

Server 1

 

 

 

 

A&E Biography Booker T

 

 

 

 

Server-2

 

 

 

 

watch now

 

 

 

|Server-3

 

 

 

 

watch now

 

 

Uploaded By Site DX-TV.com

 

 

Show Info This Show

 

 

Complete name : A&E.Biography.Booker.T.720p.HDTV.x264-NWCHD.mp4
Format : MPEG-4
Format profile : Base Media
Codec ID : isom
File size : 2.75 GiB
Duration : 1 h 23 min
Overall bit rate : 4 687 kb/s

A&E Biography Booker T

Video
ID : 1
Format : AVC
Format/Info : Advanced Video
Duration : 1 h 23 min
Source duration : 1 h 23 min
Bit rate : 4 500 kb/s
Width : 1 280 pixels
Height : 720 pixels
Display aspect ratio : 16:9
Frame rate mode : Variable
Frame rate : 29.970 (30000/1001) FPS
Minimum frame rate : 15.584 FPS
Maximum frame rate : 29.970 FPS
Color space : YUV
Chroma subsampling : 4:2:0
Bit depth : 8 bits
Scan type : Progressive
Bits/(Pixel*Frame) : 0.163
Stream size : 2.63 GiB
Color primaries : BT.709
Transfer characteristics : BT.709
Matrix coefficients : BT.709
Codec configuration box : avcC

Audio
ID : 2
Format : AAC LC
Format/Info : Advanced Audio
Codec ID : mp4a-40-2
Duration : 1 h 23 min
Bit rate mode : Constant
Bit rate : 192 kb/s
Channel(s) : 2 channels
Channel layout : L R
Sampling rate : 48.0 kHz
Frame rate : 46.875 FPS
Compression mode : Lossy
Stream size : 115 MiB (4%)
Title : Stereo
Language : English
Default : Yes
Alternate group : 1

A&E Biography

Complete name : A&E.Biography.Booker.T.1080p.HDTV.x264-NWCHD.mp4
Format : MPEG-4
Format profile : Base Media
File size : 4.85 GiB
Duration : 1 h 23 min
Overall bit rate mode : Variable
Overall bit rate : 8 264 kb/s

Video
ID : 1
Format : AVC
Format/Info : Advanced Video
Duration : 1 h 23 min
Bit rate : 8 000 kb/s
Width : 1 920 pixels
Height : 1 080 pixels
Display aspect ratio : 16:9
Frame rate mode : Constant
Frame rate : 29.970 (30000/1001) FPS
Color space : YUV
Chroma subsampling : 4:2:0
Bit depth : 8 bits
Scan type : Progressive
Bits/(Pixel*Frame) : 0.129
Stream size : 4.73 GiB (98%)
Color range : Limited
Color primaries : BT.709
Transfer characteristics : BT.709
Matrix coefficients : BT.709
Codec configuration box : avcC

Audio
ID : 2
Format : AAC LC
Format/Info : Advanced Audio
Codec ID : mp4a-40-2
Duration : 1 h 23 min
Bit rate mode : Variable
Bit rate : 192 kb/s
Channel(s) : 2 channels
Channel layout : L R
Sampling rate : 48.0 kHz
Frame rate : 46.875 FPS
Compression mode : Lossy
Stream size : 115 MiB (2%)
Title : Stereo / Stereo
Language : English
Default : Yes
Alternate group : 1

Complete name : A&E.Biography.Booker.T.HDTV.x264-NWCHD.mp4
Format : MPEG-4
Format profile : Base Media
Codec ID : isom
File size : 958 MiB
Duration : 1 h 23 min
Overall bit rate : 1 595 kb/s

A&E Biography

Video
ID : 1
Format : AVC
Format/Info : Advanced Video
Duration : 1 h 23 min
Source duration : 1 h 23 min
Bit rate : 1 400 kb/s
Width : 704 pixels
Height : 400 pixels
Display aspect ratio : 16:9
Frame rate mode : Variable
Frame rate : 29.970 (30000/1001) FPS
Minimum frame rate : 15.584 FPS
Maximum frame rate : 29.970 FPS
Color space : YUV
Chroma subsampling : 4:2:0
Bit depth : 8 bits
Scan type : Progressive
Bits/(Pixel*Frame) : 0.166
Stream size : 837 MiB
Color primaries : BT.709
Transfer characteristics : BT.709
Matrix coefficients : BT.709
Codec configuration box : avcC

Audio
ID : 2
Format : AAC LC
Format/Info : Advanced Audio
Codec ID : mp4a-40-2
Duration : 1 h 23 min
Bit rate mode : Constant
Bit rate : 192 kb/s
Channel(s) : 2 channels
Channel layout : L R
Sampling rate : 48.0 kHz
Frame rate : 46.875 FPS
Compression mode : Lossy
Stream size : 115 MiB (12%)
Title : Stereo
Language : English
Default : Yes
Alternate group : 1

 

A&E Biography 

[collapse]

 

 

https://dx-tv.com/

Leave a Reply

Your email address will not be published. Required fields are marked *

This site uses Akismet to reduce spam. Learn how your comment data is processed.