Action Wrestling SUP 2021 04 09 Have Fun Be Sad 720p

Action Wrestling SUP 2021 04 09 Have Fun Be Sad 720p DX-TV

Action Wrestling SUP 2021

 Action Wrestling SUP 2021

 

 

 

Download Links with High Speed


Dopapk

 

 

Show Links

 

http://shrt10.com/M3DLmdY

 

[collapse]

 

 

Nitroflare

 

 

Show Links

 

http://shrt10.com/sa78E

 

[collapse]

 

 

Rapidgator

 

 

Show Links

 

http://shrt10.com/U0iDGuE

 

[collapse]

 

 

Uploaded

 

 

Show Links

 

http://shrt10.com/CVHVNG1

 

[collapse]

 

 

Watch online

 

Server 1

 

 

 

 

Action Wrestling SUP

 

 

 

 

Server-2

 

 

 

 

Action Wrestling SUP

 

 

 

|Server-3

 

 

 

 

watch now

 

 

Uploaded By Site DX-TV.com

 

 

Show Info This Show

 

 

General
Complete name : Action.Wrestling.&.SUP.2021.04.09.Have.Fun.Be.Sad.720p.WEB.h264-WRESTLiNGHDD.mp4
Format : MPEG-4
Format profile : Base Media
Codec ID : isom
File size : 3.38 GiB
Duration : 2 h 54 min
Overall bit rate mode : Variable
Overall bit rate : 2 776 kb/s

Action Wrestling SUP

Video
ID : 1
Format : AVC
Duration : 2 h 54 min
Bit rate : 2 644 kb/s
Width : 1 280 pixels
Height : 720 pixels
Display aspect ratio : 16:9
Frame rate mode : Constant
Frame rate : 29.970 (30000/1001) FPS
Color space : YUV
Chroma subsampling : 4:2:0
Bit depth : 8 bits
Scan type : Progressive
Bits/(Pixel*Frame) : 0.096
Stream size : 3.22 GiB (95%)
Codec configuration box : avcC

Audio
ID : 2
Format : AAC LC
Codec ID : mp4a-40-2
Duration : 2 h 54 min
Bit rate mode : Variable
Bit rate : 125 kb/s
Maximum bit rate : 128 kb/s
Channel(s) : 2 channels
Channel layout : L R
Sampling rate : 48.0 kHz
Frame rate : 46.875 FPS (1024 SPF)
Compression mode : Lossy
Stream size : 156 MiB (5%)
Default : Yes
Alternate group : 1

Action Wrestling SUP

Audio
ID : 2
Format : AAC LC
Codec ID : mp4a-40-2
Duration : 2 h 54 min
Bit rate mode : Variable
Bit rate : 125 kb/s
Maximum bit rate : 128 kb/s
Channel(s) : 2 channels
Channel layout : L R
Sampling rate : 48.0 kHz
Frame rate : 46.875 FPS (1024 SPF)
Compression mode : Lossy
Stream size : 156 MiB (5%)
Default : Yes
Alternate group : 1

Action Wrestling SUP

Audio
ID : 2
Format : AAC LC
Codec ID : mp4a-40-2
Duration : 2 h 54 min
Bit rate mode : Variable
Bit rate : 125 kb/s
Maximum bit rate : 128 kb/s
Channel(s) : 2 channels
Channel layout : L R
Sampling rate : 48.0 kHz
Frame rate : 46.875 FPS (1024 SPF)
Compression mode : Lossy
Stream size : 156 MiB (5%)
Default : Yes
Alternate group : 1

Action Wrestling SUP

Audio
ID : 2
Format : AAC LC
Codec ID : mp4a-40-2
Duration : 2 h 54 min
Bit rate mode : Variable
Bit rate : 125 kb/s
Maximum bit rate : 128 kb/s
Channel(s) : 2 channels
Channel layout : L R
Sampling rate : 48.0 kHz
Frame rate : 46.875 FPS (1024 SPF)
Compression mode : Lossy
Stream size : 156 MiB (5%)
Default : Yes
Alternate group : 1

Action Wrestling SUP

[collapse]

 

 

https://dx-tv.com/