AAW 2018 04 13 Never Say Die WEB NCMP Watch / Download

AAW 2018 04 13 Never Say Die WEB NCMP Watch / Download

 

 

 

 


 

dx-tv.com

 

 

 

 

 

Complete name : AAW.2018.04.13.Never.Say.Die.WEB.h264-NCMP.mp4
Format : MPEG-4
Format profile : Base Media
Codec ID : isom
File size : 1.86 GiB
Duration : 2h 47mn
Overall bit rate : 1 587 Kbps

Video
ID : 2
Format : AVC
Format/Info : Advanced Video Codec
Codec ID : avc1
Codec ID/Info : Advanced Video Coding
Duration : 2h 47mn
Bit rate mode : Variable
Bit rate : 1 495 Kbps
Width : 854 pixels
Height : 480 pixels
Display aspect ratio : 16:9
Frame rate mode : Constant
Frame rate : 29.970 fps
Color space : YUV
Chroma subsampling : 4:2:0
Bit depth : 8 bits
Scan type : Progressive
Bits/(Pixel*Frame) : 0.122
Stream size : 1.75 GiB (94%)

Audio
ID : 1
Format : AAC
Format/Info : Advanced Audio Codec
Format profile : LC
Codec ID : 40
Duration : 2h 47mn
Bit rate mode : Variable
Bit rate : 85.2 Kbps
Maximum bit rate : 89.3 Kbps
Channel(s) : 2 channels
Channel positions : Front: L R
Sampling rate : 48.0 KHz
Compression mode : Lossy
Stream size : 102 MiB (5%)

 

 

 

 

 

4.13.18 – Never Say Die – AAW Pro
Video Duration: 02:47:20

Never Say Die
4/13/18
115 Bourbon Street – Merrionette Park, IL

1. Paco vs. Pat Monix

2. Dezmond Xavier, Keith Lee & Zachary Wentz vs. Wrstling (David Starr, Eddie Kingston & Jeff Cobb)

3. Joey Janela vs. Sami Callihan vs. Zemi Ion

4. AAW Tag Team Championship: Besties in the World(c) (Davey Vega & Mat Fitchett) vs. OI4K (Dave & Jake Crist)

5. AAW Tag Team Championship #1 Contender Ladder Warfare: AR Fox & Myron Reed vs. Curt Stallion & Jake Something vs. Stephen Wolf & Trey Miguel

6. Ace Romero vs. Maxwell Jacob Friedman

7. Penta el Cero Miedo vs. Teddy Hart

8. Hudson Envy, Samantha Heights & Tenille Dashwood vs. Jessicka Havok, Kimber Lee & Su Yung

9. AAW Heavyweight Championship: ACH(c) vs. Rey Fenix
 

 

 

 

 

 

AAW 2018 04 13 Never Say Die WEB NCMP Watch / Download

 

 

 

 

Watch online

 

 

Waiting finish converting video

 

 

Server 1

 

 

 

 

 

 

 

 

 

 

 

 

 

 

Server 2

 

 

 

 

 

 


 

 

 

Uploaded By Site DX-TV.com

 

 

 

open rar file to see this password

 

 

 

 

The password is : DX-TV.com

 

 

 

 

Uploaded.net + rapidgator.net

 

 

 

 

 

 

http://shrt10.com/OzI0
 

http://shrt10.com/mSW9J4V
 

http://shrt10.com/fLdwKVpi
 

http://shrt10.com/0OLRlQ
 

 

 

 

 

 

AAW 2018 04 13 Never Say Die WEB NCMP Watch / Download