AAW 2018 03 31 Path of Redemption WEB NCMP /720p Watch /Download

AAW 2018 03 31 Path of Redemption WEB NCMP /720p Watch /Download

 

 

 

 

 

 

dx-tv

 

 

 

 

 

 

 

 

Complete name : AAW.2018.03.31.Path.of.Redemption.WEB.h264-NCMP.mp4
Format : MPEG-4
Format profile : Base Media
Codec ID : isom
File size : 2.14 GiB
Duration : 3h 13mn
Overall bit rate : 1 587 Kbps
Writing application : Lavf55.12.100

Video
ID : 2
Format : AVC
Format/Info : Advanced Video Codec
Codec ID : avc1
Codec ID/Info : Advanced Video Coding
Duration : 3h 13mn
Bit rate mode : Variable
Bit rate : 1 495 Kbps
Width : 854 pixels
Height : 480 pixels
Display aspect ratio : 16:9
Frame rate mode : Constant
Frame rate : 29.970 fps
Color space : YUV
Chroma subsampling : 4:2:0
Bit depth : 8 bits
Scan type : Progressive
Bits/(Pixel*Frame) : 0.122
Stream size : 2.02 GiB (94%)

Audio
ID : 1
Format : AAC
Format/Info : Advanced Audio Codec
Format profile : LC
Codec ID : 40
Duration : 3h 13mn
Bit rate mode : Variable
Bit rate : 85.0 Kbps
Maximum bit rate : 105 Kbps
Channel(s) : 2 channels
Channel positions : Front: L R
Sampling rate : 48.0 KHz
Compression mode : Lossy
Stream size : 117 MiB (5%)

 

 

 

 

 

 
Path of Redemption
3/31/18
Knights of Columbus – LaSalle, IL

1. Andy Dalton vs. Juntai Miller

2. Scarlett Bordeaux vs. Kylie Rae

3. Air Buds (Stephen Wolf & Trey Miguel) vs. AR Fox & Myron Reed

4. Eddie Kingston vs. Jimmy Jacobs

5. AAW Women’s Championship: Ivelisse vs. Jessica Havok (c)

6. AAW Heritage Championship: Shane Strickland vs. Moose vs. Trevor Lee (c)

7. AAW Tag Team Championship: Curt Stallion & Jake Something vs. Besties in the World (Mat Fitchett & Davey Vega)

8. The Heritage Rumble

9. AAW Heavyweight Championship: Keith Lee vs. ACH (c)
 

 

 

 

 

 

 

 

AAW 2018 03 31 Path of Redemption WEB NCMP /720p Watch /Download

 

 

 

 

Watch online

 

 

Waiting finish converting video

 

 

Server 1

 

 

 

 

 

 

 

 

 

 

 

 

 

 

 

 

 

Server 2

 

 

 

 

 

 

 

 


 

 

 

 

 

 

Uploaded By Site DX-TV.com

 

 

 

open rar file to see this password

 

 

 

 

The password is : DX-TV.com

 

 

 

 

400p+720p

 

 

 

 

 

Uploaded.net + rapidgator.net

 

 

 

 

 

 

 
http://shrt10.com/zXCHJ6
 

http://shrt10.com/heXHxKIy
 

http://shrt10.com/DbvQFApj
 

http://shrt10.com/ryRdME
 

 

 

 

 

 

 

 

AAW 2018 03 31 Path of Redemption WEB NCMP /720p Watch /Download