AAA TripleMania XXVIII 2020 Free FUll Show Online DX-TV

AAA TripleMania XXVIII 2020 Free FUll Show Online 720p / 1080p DX-TV

AAA TripleMania XXVIII 2020

 

 AAA TripleMania XXVIII 2020

 

Download Links with premium High Speed   

 

 

dropapk.to

http://shrt10.com/m6D1oOI
http://shrt10.com/pGvpTFwvL

 

 

nitroflare.com

htp://shrt10.com/gwaPjOIYu
http://shrt10.com/AWrqfCDeM

 

 

rapidgator.net

http://shrt10.com/pLaVWK
http://shrt10.com/mzkpZ

 

 

uploaded.net

http://shrt10.com/4VJfGL4aB

 

 

uploadgig.com

http://shrt10.com/jIK62I
http://shrt10.com/2byot1

 

AAA TripleMania XXVIII  

 

Watch online

 

Server 1

 

 

 

 

watch now

 

 

 

 

Server-2

 

 

 

 

watch now

 

 

 

 

Uploaded By Site DX-TV.com

 

 

 

[su_expand more_text=”Show More Info” less_text=”Close all Info” height=”50″ text_color=”#000000″ link_color=”#e25f8b” link_style=”button” more_icon=”icon: arrow-down” less_icon=”icon: arrow-up”]
Complete name : AAA TripleMania XXVIII 2020 12 13 720p WEB DX-TV.mp4
Format : MPEG-4
File size : 1.63 GiB
Duration : 3 h 4 min
Overall bit rate mode : Variable
Overall bit rate : 1 264 kb/s

 TripleMania XXVIII 2020

Video
ID : 1
Format : AVC
Duration : 3 h 4 min
Bit rate : 1 132 kb/s
Width : 1 280 pixels
Height : 720 pixels
Display aspect ratio : 16:9
Frame rate mode : Constant
Frame rate : 23.976 (24000/1001) FPS
Color space : YUV
Chroma subsampling : 4:2:0
Bit depth : 8 bits
Scan type : Progressive
Bits/(Pixel*Frame) : 0.051
Stream size : 1.46 GiB
Color range : Limited
Color primaries : BT.709
Transfer characteristics : BT.709
Matrix coefficients : BT.709
Codec configuration box : avc

AAA TripleMania XXVIII 2020

Audio
ID : 2
Format : AAC LC
Codec ID : mp4a-40-2
Duration : 3 h 4 min
Source duration : 3 h 4 min
Bit rate mode : Variable
Bit rate : 128 kb/s
Channel(s) : 2 channels
Channel layout : L R
Sampling rate : 44.1 kHz
Frame rate : 43.066 FPS

Complete name : AAA TripleMania XXVIII 2020 12 13 1080p WEB DX-TV.mp4
Format : MPEG-4
File size : 5.01 GiB
Duration : 3 h 4 min
Overall bit rate mode : Variable
Overall bit rate : 3 897 kb/s

Video
ID : 1
Format : AVC
Duration : 3 h 4 min
Bit rate : 3 766 kb/s
Width : 1 920 pixels
Height : 1 080 pixels
aspect ratio : 16:9
Frame rate mode : Constant
Frame rate : 23.976 (24000/1001) FPS
Color space : YUV
Chroma subsampling : 4:2:0
Bit depth : 8 bits
Scan type : Progressive
Bits/(Pixel*Frame) : 0.076
Stream size : 4.84 GiB (97%)
Color range : Limited
Color primaries : BT.709
Transfer characteristics : BT.709
Matrix coefficients : BT.709
Codec configuration box : avc

 TripleMania XXVIII 2020

Audio
ID : 2
Format : AAC LC
Codec ID : mp4a-40-2
Duration : 3 h 4 min
Bit rate mode : Variable
Bit rate : 128 kb/s
Channel(s) : 2 channels
Channel layout : L R
Sampling rate : 44.1 kHz
Compression mode : Lossy
Stream size : 169 MiB

 

[/su_expand]

 

https://dx-tv.com/

Leave a Reply

Your email address will not be published. Required fields are marked *

This site uses Akismet to reduce spam. Learn how your comment data is processed.