A-E Biography Macho Man Randy Savage 720p Online

A-E Biography Macho Man Randy Savage 720p Replay Online DX-TV

A-E Biography Macho ManĀ 

 A-E Biography Macho Man Randy Savage

 

 

 

Download Links with High Speed


Dopapk

 

 

Show Links

 

http://shrt10.com/rXUkyVXyI
http://shrt10.com/sJux96

 

[collapse]

 

 

Nitroflare

 

 

Show Links

 

http://shrt10.com/uay2REC
http://shrt10.com/qEmT8N

 

[collapse]

 

 

Rapidgator

 

 

Show Links

 

http://shrt10.com/0QSu3
http://shrt10.com/lUPRauop7

 

[collapse]

 

 

Uploaded

 

 

Show Links

 

http://shrt10.com/PTpf4G
http://shrt10.com/xzkD1jCrE

 

[collapse]

 

 

Watch online

 

Server 1

 

 

 

 

A-E Biography Macho Man Randy Savage

 

 

 

 

Server-2

 

 

 

 

watch now

 

 

 

|Server-3

 

 

 

 

watch now

 

 

Uploaded By Site DX-TV.com

 

 

Show Info This Show

 

 

Complete name : A&E.Biography.Macho.Man.Randy.Savage.720p.HDTV.x264-NWCHD.mp4
Format : MPEG-4
Format profile : Base Media
File size : 2.77 GiB
Duration : 1 h 23 min
Overall bit rate : 4 717 kb/s

A-E Biography Macho Man Randy Savage

Video
ID : 1
Format : AVC
Duration : 1 h 23 min
Bit rate : 4 500 kb/s
Width : 1 280 pixels
Height : 720 pixels
Display aspect ratio : 16:9
Frame rate mode : Variable
Frame rate : 29.970 (29970/1000) FPS
Minimum frame rate : 29.211 FPS
Maximum frame rate : 29.970 FPS
Original frame rate : 29.970 (30000/1001) FPS
Color space : YUV
Chroma subsampling : 4:2:0
Bit depth : 8 bits
Scan type : Progressive
Bits/(Pixel*Frame) : 0.163
Stream size : 2.65 GiB (96%)
Color primaries : BT.709
Transfer characteristics : BT.709
Matrix coefficients : BT.709
Codec configuration box : avcC

Audio
ID : 2
Format : AAC LC
Codec ID : mp4a-40-2
Duration : 1 h 23 min
Bit rate mode : Constant
Bit rate : 192 kb/s
Channel(s) : 2 channels
Channel layout : L R
Sampling rate : 48.0 kHz
Frame rate : 46.875 FPS (1024 SPF)
Compression mode : Lossy
Stream size : 115 MiB (4%)
Title : Stereo
Language : English
Default : Yes
Alternate group : 1

A-E Biography Macho

Complete name : A&E.Biography.Macho.Man.Randy.Savage.HDTV.x264-NWCHD.mp4
Format : MPEG-4
Format profile : Base Media
Codec ID : isom
File size : 966 MiB
Duration : 1 h 23 min
Overall bit rate : 1 608 kb/s

Video
ID : 1
Format : AVC
Duration : 1 h 23 min
Bit rate : 1 400 kb/s
Width : 704 pixels
Height : 400 pixels
Display aspect ratio : 16:9
Frame rate mode : Variable
Frame rate : 29.970 (30000/1001) FPS
Minimum frame rate : 29.211 FPS
Maximum frame rate : 29.970 FPS
Color space : YUV
Chroma subsampling : 4:2:0
Bit depth : 8 bits
Scan type : Progressive
Bits/(Pixel*Frame) : 0.166
Stream size : 845 MiB (88%)
Color primaries : BT.709
Transfer characteristics : BT.709
Matrix coefficients : BT.709
Codec configuration box : avcC

A-E Biography Macho

Audio
ID : 2
Format : AAC LC
Format/Info : Advanced Audio
Codec ID : mp4a-40-2
Duration : 1 h 23 min
Bit rate mode : Constant
Bit rate : 192 kb/s
Channel(s) : 2 channels
Channel layout : L R
Sampling rate : 48.0 kHz
Frame rate : 46.875 FPS (1024 SPF)
Compression mode : Lossy
Stream size : 115 MiB (12%)
Title : Stereo
Language : English
Default : Yes
Alternate group : 1

A-E Biography Macho

 

[collapse]

 

 

https://dx-tv.com/