8th Tokyo Princess Cup Final 2021 TJPW ENG Online Free

8th Tokyo Princess Cup Final 2021 1080p TJPW English Online Free Replay DX-TV

Contents show

8th Tokyo Princess Cup Final

8th Tokyo Princess Cup Final

 

 

 

Download Links with premium High Speed


Dopapk

 

 

Show Links

 

http://shrt10.com/9HhYalw
http://shrt10.com/E01zeW
http://shrt10.com/oXbpf6T2

 

[collapse]

 

 

Nitroflare

 

 

Show Links

 

http://shrt10.com/oZnH0
http://shrt10.com/wyqWu9
http://shrt10.com/SZ3R6

 

[collapse]

 

 

Rapidgator

 

 

Show Links

 

http://shrt10.com/zSk7X
http://shrt10.com/uOeAErs
http://shrt10.com/e6xnav8MJ

 

[collapse]

 

 

Uploaded

 

 

Show Links

 

http://shrt10.com/hfH00L
http://shrt10.com/N5mzO

 

[collapse]

 

 

Watch online

 

Server 1

 

 

 

 

watch now

 

 

 

 

Server-2

 

 

 

 

8th Tokyo Princess Cup Final

 

 

 

|Server-3

 

 

 

 

watch now

 

 

Uploaded By Site DX-TV.com

 

 

Show Info This Show

8th Tokyo Princess Cup Final

 

Complete name : Tokyo.Joshi.Pro.2021.08.15.8th.Tokyo.Princess.Cup.Final.ENGLISH.WEB.h264-LATE.mkv
Format : Matroska
Format version : Version 4
File size : 1.67 GiB
Duration : 2 h 26 min
Overall bit rate mode : Variable
Overall bit rate : 1 628 kb/s
Video
ID : 1
Format : AVC
Format/Info : Advanced Video
Duration : 2 h 26 min
Bit rate mode : Variable
Bit rate : 1 500 kb/s
Maximum bit rate : 4 000 kb/s
Width : 960 pixels
Height : 540 pixels
Display aspect ratio : 16:9
Frame rate mode : Constant
Frame rate : 29.970 (29970/1000) FPS
Color space : YUV
Chroma subsampling : 4:2:0
Bit depth : 8 bits
Scan type : Progressive
Bits/(Pixel*Frame) : 0.097
Stream size : 1.54 GiB (92%)
Default : Yes
Forced : No
Color range : Limited
Color primaries : BT.709
Transfer characteristics : BT.709
Matrix coefficients : BT.709

8th Tokyo Princess Cup Final

Audio
ID : 2
Format : AAC LC
Codec ID : A_AAC-2
Duration : 2 h 26 min
Bit rate : 125 kb/s
Channel(s) : 2 channels
Channel layout : L R
Sampling rate : 48.0 kHz
Frame rate : 46.875 FPS (1024 SPF)
Compression mode : Lossy
Delay relative to video : 7 ms
Stream size : 131 MiB (8%)
Default : Yes
Forced : No

Complete name : Tokyo.Joshi.Pro.2021.08.15.8th.Tokyo.Princess.Cup.Final.ENGLISH.1080p.WEB.h264-LATE.mkv
Format : Matroska
Format version : Version 4
File size : 8.66 GiB
Duration : 2 h 26 min
Overall bit rate mode : Variable
Overall bit rate : 8 454 kb/s

8th Tokyo Princess Cup Final

Video
ID : 1
Format : AVC
Format/Info : Advanced Video
Duration : 2 h 26 min
Bit rate mode : Variable
Bit rate : 8 070 kb/s
Maximum bit rate : 18.0 Mb/s
Width : 1 920 pixels
Height : 1 080 pixels
Display aspect ratio : 16:9
Frame rate mode : Constant
Frame rate : 29.970 (29970/1000) FPS
Color space : YUV
Chroma subsampling : 4:2:0
Bit depth : 8 bits
Scan type : Progressive
Bits/(Pixel*Frame) : 0.130
Stream size : 8.26 GiB (95%)
Default : Yes
Forced : No
Color range : Limited
Color primaries : BT.709
Transfer characteristics : BT.709
Matrix coefficients : BT.709

8th Tokyo Princess Cup Final

Audio
ID : 2
Format : AAC LC
Format/Info : Advanced Audio
Codec ID : A_AAC-2
Duration : 2 h 26 min
Bit rate : 384 kb/s
Channel(s) : 2 channels
Channel layout : L R
Sampling rate : 48.0 kHz
Frame rate : 46.875 FPS (1024 SPF)
Compression mode : Lossy
Delay relative to video : 7 ms
Stream size : 400 MiB (5%)
Default : Yes
Forced : No

Complete name : Tokyo.Joshi.Pro.2021.08.15.8th.Tokyo.Princess.Cup.Final.ENGLISH.720p.WEB.h264-LATE.mkv
Format : Matroska
Format version : Version 4
File size : 3.73 GiB
Duration : 2 h 26 min
Overall bit rate mode : Variable
Overall bit rate : 3 638 kb/s

8th Tokyo Princess Cup Final

Video
ID : 1
Format : AVC
Format/Info : Advanced Video
Codec ID : V_MPEG4/ISO/AVC
Duration : 2 h 26 min
Bit rate mode : Variable
Bit rate : 3 446 kb/s
Maximum bit rate : 8 000 kb/s
Width : 1 280 pixels
Height : 720 pixels
Display aspect ratio : 16:9
Frame rate mode : Constant
Frame rate : 29.970 (29970/1000) FPS
Color space : YUV
Chroma subsampling : 4:2:0
Bit depth : 8 bits
Scan type : Progressive
Bits/(Pixel*Frame) : 0.125
Stream size : 3.53 GiB (95%)
Default : Yes
Forced : No
Color range : Limited
Color primaries : BT.709
Transfer characteristics : BT.709
Matrix coefficients : BT.709

8th Tokyo Princess Cup Final

Audio
ID : 2
Format : AAC LC
Codec ID : A_AAC-2
Duration : 2 h 26 min
Bit rate : 192 kb/s
Channel(s) : 2 channels
Channel layout : L R
Sampling rate : 48.0 kHz
Frame rate : 46.875 FPS (1024 SPF)
Compression mode : Lossy
Delay relative to video : 7 ms
Stream size : 198 MiB (5%)
Default : Yes
Forced : No

8th Tokyo Princess Cup Final

 

 

Complete name : Tokyo.Joshi.Pro.2021.08.15.8th.Tokyo.Princess.Cup.Final.ENGLISH.WEB.h264-LATE.mkv
Format : Matroska
Format version : Version 4
File size : 1.67 GiB
Duration : 2 h 26 min
Overall bit rate mode : Variable
Overall bit rate : 1 628 kb/s
Video
ID : 1
Format : AVC
Format/Info : Advanced Video
Duration : 2 h 26 min
Bit rate mode : Variable
Bit rate : 1 500 kb/s
Maximum bit rate : 4 000 kb/s
Width : 960 pixels
Height : 540 pixels
Display aspect ratio : 16:9
Frame rate mode : Constant
Frame rate : 29.970 (29970/1000) FPS
Color space : YUV
Chroma subsampling : 4:2:0
Bit depth : 8 bits
Scan type : Progressive
Bits/(Pixel*Frame) : 0.097
Stream size : 1.54 GiB (92%)
Default : Yes
Forced : No
Color range : Limited
Color primaries : BT.709
Transfer characteristics : BT.709
Matrix coefficients : BT.709

8th Tokyo Princess Cup Final

Audio
ID : 2
Format : AAC LC
Codec ID : A_AAC-2
Duration : 2 h 26 min
Bit rate : 125 kb/s
Channel(s) : 2 channels
Channel layout : L R
Sampling rate : 48.0 kHz
Frame rate : 46.875 FPS (1024 SPF)
Compression mode : Lossy
Delay relative to video : 7 ms
Stream size : 131 MiB (8%)
Default : Yes
Forced : No

Complete name : Tokyo.Joshi.Pro.2021.08.15.8th.Tokyo.Princess.Cup.Final.ENGLISH.1080p.WEB.h264-LATE.mkv
Format : Matroska
Format version : Version 4
File size : 8.66 GiB
Duration : 2 h 26 min
Overall bit rate mode : Variable
Overall bit rate : 8 454 kb/s

8th Tokyo Princess Cup Final

Video
ID : 1
Format : AVC
Format/Info : Advanced Video
Duration : 2 h 26 min
Bit rate mode : Variable
Bit rate : 8 070 kb/s
Maximum bit rate : 18.0 Mb/s
Width : 1 920 pixels
Height : 1 080 pixels
Display aspect ratio : 16:9
Frame rate mode : Constant
Frame rate : 29.970 (29970/1000) FPS
Color space : YUV
Chroma subsampling : 4:2:0
Bit depth : 8 bits
Scan type : Progressive
Bits/(Pixel*Frame) : 0.130
Stream size : 8.26 GiB (95%)
Default : Yes
Forced : No
Color range : Limited
Color primaries : BT.709
Transfer characteristics : BT.709
Matrix coefficients : BT.709

8th Tokyo Princess Cup Final

Audio
ID : 2
Format : AAC LC
Format/Info : Advanced Audio
Codec ID : A_AAC-2
Duration : 2 h 26 min
Bit rate : 384 kb/s
Channel(s) : 2 channels
Channel layout : L R
Sampling rate : 48.0 kHz
Frame rate : 46.875 FPS (1024 SPF)
Compression mode : Lossy
Delay relative to video : 7 ms
Stream size : 400 MiB (5%)
Default : Yes
Forced : No

Complete name : Tokyo.Joshi.Pro.2021.08.15.8th.Tokyo.Princess.Cup.Final.ENGLISH.720p.WEB.h264-LATE.mkv
Format : Matroska
Format version : Version 4
File size : 3.73 GiB
Duration : 2 h 26 min
Overall bit rate mode : Variable
Overall bit rate : 3 638 kb/s

8th Tokyo Princess Cup Final

Video
ID : 1
Format : AVC
Format/Info : Advanced Video
Codec ID : V_MPEG4/ISO/AVC
Duration : 2 h 26 min
Bit rate mode : Variable
Bit rate : 3 446 kb/s
Maximum bit rate : 8 000 kb/s
Width : 1 280 pixels
Height : 720 pixels
Display aspect ratio : 16:9
Frame rate mode : Constant
Frame rate : 29.970 (29970/1000) FPS
Color space : YUV
Chroma subsampling : 4:2:0
Bit depth : 8 bits
Scan type : Progressive
Bits/(Pixel*Frame) : 0.125
Stream size : 3.53 GiB (95%)
Default : Yes
Forced : No
Color range : Limited
Color primaries : BT.709
Transfer characteristics : BT.709
Matrix coefficients : BT.709

8th Tokyo Princess Cup Final

Audio
ID : 2
Format : AAC LC
Codec ID : A_AAC-2
Duration : 2 h 26 min
Bit rate : 192 kb/s
Channel(s) : 2 channels
Channel layout : L R
Sampling rate : 48.0 kHz
Frame rate : 46.875 FPS (1024 SPF)
Compression mode : Lossy
Delay relative to video : 7 ms
Stream size : 198 MiB (5%)
Default : Yes
Forced : No

8th Tokyo Princess Cup Final

 

 

Complete name : Tokyo.Joshi.Pro.2021.08.15.8th.Tokyo.Princess.Cup.Final.ENGLISH.WEB.h264-LATE.mkv
Format : Matroska
Format version : Version 4
File size : 1.67 GiB
Duration : 2 h 26 min
Overall bit rate mode : Variable
Overall bit rate : 1 628 kb/s
Video
ID : 1
Format : AVC
Format/Info : Advanced Video
Duration : 2 h 26 min
Bit rate mode : Variable
Bit rate : 1 500 kb/s
Maximum bit rate : 4 000 kb/s
Width : 960 pixels
Height : 540 pixels
Display aspect ratio : 16:9
Frame rate mode : Constant
Frame rate : 29.970 (29970/1000) FPS
Color space : YUV
Chroma subsampling : 4:2:0
Bit depth : 8 bits
Scan type : Progressive
Bits/(Pixel*Frame) : 0.097
Stream size : 1.54 GiB (92%)
Default : Yes
Forced : No
Color range : Limited
Color primaries : BT.709
Transfer characteristics : BT.709
Matrix coefficients : BT.709

8th Tokyo Princess Cup Final

Audio
ID : 2
Format : AAC LC
Codec ID : A_AAC-2
Duration : 2 h 26 min
Bit rate : 125 kb/s
Channel(s) : 2 channels
Channel layout : L R
Sampling rate : 48.0 kHz
Frame rate : 46.875 FPS (1024 SPF)
Compression mode : Lossy
Delay relative to video : 7 ms
Stream size : 131 MiB (8%)
Default : Yes
Forced : No

Complete name : Tokyo.Joshi.Pro.2021.08.15.8th.Tokyo.Princess.Cup.Final.ENGLISH.1080p.WEB.h264-LATE.mkv
Format : Matroska
Format version : Version 4
File size : 8.66 GiB
Duration : 2 h 26 min
Overall bit rate mode : Variable
Overall bit rate : 8 454 kb/s

8th Tokyo Princess Cup Final

Video
ID : 1
Format : AVC
Format/Info : Advanced Video
Duration : 2 h 26 min
Bit rate mode : Variable
Bit rate : 8 070 kb/s
Maximum bit rate : 18.0 Mb/s
Width : 1 920 pixels
Height : 1 080 pixels
Display aspect ratio : 16:9
Frame rate mode : Constant
Frame rate : 29.970 (29970/1000) FPS
Color space : YUV
Chroma subsampling : 4:2:0
Bit depth : 8 bits
Scan type : Progressive
Bits/(Pixel*Frame) : 0.130
Stream size : 8.26 GiB (95%)
Default : Yes
Forced : No
Color range : Limited
Color primaries : BT.709
Transfer characteristics : BT.709
Matrix coefficients : BT.709

8th Tokyo Princess Cup Final

Audio
ID : 2
Format : AAC LC
Format/Info : Advanced Audio
Codec ID : A_AAC-2
Duration : 2 h 26 min
Bit rate : 384 kb/s
Channel(s) : 2 channels
Channel layout : L R
Sampling rate : 48.0 kHz
Frame rate : 46.875 FPS (1024 SPF)
Compression mode : Lossy
Delay relative to video : 7 ms
Stream size : 400 MiB (5%)
Default : Yes
Forced : No

Complete name : Tokyo.Joshi.Pro.2021.08.15.8th.Tokyo.Princess.Cup.Final.ENGLISH.720p.WEB.h264-LATE.mkv
Format : Matroska
Format version : Version 4
File size : 3.73 GiB
Duration : 2 h 26 min
Overall bit rate mode : Variable
Overall bit rate : 3 638 kb/s

8th Tokyo Princess Cup Final

Video
ID : 1
Format : AVC
Format/Info : Advanced Video
Codec ID : V_MPEG4/ISO/AVC
Duration : 2 h 26 min
Bit rate mode : Variable
Bit rate : 3 446 kb/s
Maximum bit rate : 8 000 kb/s
Width : 1 280 pixels
Height : 720 pixels
Display aspect ratio : 16:9
Frame rate mode : Constant
Frame rate : 29.970 (29970/1000) FPS
Color space : YUV
Chroma subsampling : 4:2:0
Bit depth : 8 bits
Scan type : Progressive
Bits/(Pixel*Frame) : 0.125
Stream size : 3.53 GiB (95%)
Default : Yes
Forced : No
Color range : Limited
Color primaries : BT.709
Transfer characteristics : BT.709
Matrix coefficients : BT.709

8th Tokyo Princess Cup Final

Audio
ID : 2
Format : AAC LC
Codec ID : A_AAC-2
Duration : 2 h 26 min
Bit rate : 192 kb/s
Channel(s) : 2 channels
Channel layout : L R
Sampling rate : 48.0 kHz
Frame rate : 46.875 FPS (1024 SPF)
Compression mode : Lossy
Delay relative to video : 7 ms
Stream size : 198 MiB (5%)
Default : Yes
Forced : No

8th Tokyo Princess Cup Final

 

 

Complete name : Tokyo.Joshi.Pro.2021.08.15.8th.Tokyo.Princess.Cup.Final.ENGLISH.WEB.h264-LATE.mkv
Format : Matroska
Format version : Version 4
File size : 1.67 GiB
Duration : 2 h 26 min
Overall bit rate mode : Variable
Overall bit rate : 1 628 kb/s
Video
ID : 1
Format : AVC
Format/Info : Advanced Video
Duration : 2 h 26 min
Bit rate mode : Variable
Bit rate : 1 500 kb/s
Maximum bit rate : 4 000 kb/s
Width : 960 pixels
Height : 540 pixels
Display aspect ratio : 16:9
Frame rate mode : Constant
Frame rate : 29.970 (29970/1000) FPS
Color space : YUV
Chroma subsampling : 4:2:0
Bit depth : 8 bits
Scan type : Progressive
Bits/(Pixel*Frame) : 0.097
Stream size : 1.54 GiB (92%)
Default : Yes
Forced : No
Color range : Limited
Color primaries : BT.709
Transfer characteristics : BT.709
Matrix coefficients : BT.709

8th Tokyo Princess Cup Final

Audio
ID : 2
Format : AAC LC
Codec ID : A_AAC-2
Duration : 2 h 26 min
Bit rate : 125 kb/s
Channel(s) : 2 channels
Channel layout : L R
Sampling rate : 48.0 kHz
Frame rate : 46.875 FPS (1024 SPF)
Compression mode : Lossy
Delay relative to video : 7 ms
Stream size : 131 MiB (8%)
Default : Yes
Forced : No

Complete name : Tokyo.Joshi.Pro.2021.08.15.8th.Tokyo.Princess.Cup.Final.ENGLISH.1080p.WEB.h264-LATE.mkv
Format : Matroska
Format version : Version 4
File size : 8.66 GiB
Duration : 2 h 26 min
Overall bit rate mode : Variable
Overall bit rate : 8 454 kb/s

8th Tokyo Princess Cup Final

Video
ID : 1
Format : AVC
Format/Info : Advanced Video
Duration : 2 h 26 min
Bit rate mode : Variable
Bit rate : 8 070 kb/s
Maximum bit rate : 18.0 Mb/s
Width : 1 920 pixels
Height : 1 080 pixels
Display aspect ratio : 16:9
Frame rate mode : Constant
Frame rate : 29.970 (29970/1000) FPS
Color space : YUV
Chroma subsampling : 4:2:0
Bit depth : 8 bits
Scan type : Progressive
Bits/(Pixel*Frame) : 0.130
Stream size : 8.26 GiB (95%)
Default : Yes
Forced : No
Color range : Limited
Color primaries : BT.709
Transfer characteristics : BT.709
Matrix coefficients : BT.709

8th Tokyo Princess Cup Final

Audio
ID : 2
Format : AAC LC
Format/Info : Advanced Audio
Codec ID : A_AAC-2
Duration : 2 h 26 min
Bit rate : 384 kb/s
Channel(s) : 2 channels
Channel layout : L R
Sampling rate : 48.0 kHz
Frame rate : 46.875 FPS (1024 SPF)
Compression mode : Lossy
Delay relative to video : 7 ms
Stream size : 400 MiB (5%)
Default : Yes
Forced : No

Complete name : Tokyo.Joshi.Pro.2021.08.15.8th.Tokyo.Princess.Cup.Final.ENGLISH.720p.WEB.h264-LATE.mkv
Format : Matroska
Format version : Version 4
File size : 3.73 GiB
Duration : 2 h 26 min
Overall bit rate mode : Variable
Overall bit rate : 3 638 kb/s

8th Tokyo Princess Cup Final

Video
ID : 1
Format : AVC
Format/Info : Advanced Video
Codec ID : V_MPEG4/ISO/AVC
Duration : 2 h 26 min
Bit rate mode : Variable
Bit rate : 3 446 kb/s
Maximum bit rate : 8 000 kb/s
Width : 1 280 pixels
Height : 720 pixels
Display aspect ratio : 16:9
Frame rate mode : Constant
Frame rate : 29.970 (29970/1000) FPS
Color space : YUV
Chroma subsampling : 4:2:0
Bit depth : 8 bits
Scan type : Progressive
Bits/(Pixel*Frame) : 0.125
Stream size : 3.53 GiB (95%)
Default : Yes
Forced : No
Color range : Limited
Color primaries : BT.709
Transfer characteristics : BT.709
Matrix coefficients : BT.709

8th Tokyo Princess Cup Final

Audio
ID : 2
Format : AAC LC
Codec ID : A_AAC-2
Duration : 2 h 26 min
Bit rate : 192 kb/s
Channel(s) : 2 channels
Channel layout : L R
Sampling rate : 48.0 kHz
Frame rate : 46.875 FPS (1024 SPF)
Compression mode : Lossy
Delay relative to video : 7 ms
Stream size : 198 MiB (5%)
Default : Yes
Forced : No

8th Tokyo Princess Cup Final

 

 

Complete name : Tokyo.Joshi.Pro.2021.08.15.8th.Tokyo.Princess.Cup.Final.ENGLISH.WEB.h264-LATE.mkv
Format : Matroska
Format version : Version 4
File size : 1.67 GiB
Duration : 2 h 26 min
Overall bit rate mode : Variable
Overall bit rate : 1 628 kb/s
Video
ID : 1
Format : AVC
Format/Info : Advanced Video
Duration : 2 h 26 min
Bit rate mode : Variable
Bit rate : 1 500 kb/s
Maximum bit rate : 4 000 kb/s
Width : 960 pixels
Height : 540 pixels
Display aspect ratio : 16:9
Frame rate mode : Constant
Frame rate : 29.970 (29970/1000) FPS
Color space : YUV
Chroma subsampling : 4:2:0
Bit depth : 8 bits
Scan type : Progressive
Bits/(Pixel*Frame) : 0.097
Stream size : 1.54 GiB (92%)
Default : Yes
Forced : No
Color range : Limited
Color primaries : BT.709
Transfer characteristics : BT.709
Matrix coefficients : BT.709

8th Tokyo Princess Cup Final

Audio
ID : 2
Format : AAC LC
Codec ID : A_AAC-2
Duration : 2 h 26 min
Bit rate : 125 kb/s
Channel(s) : 2 channels
Channel layout : L R
Sampling rate : 48.0 kHz
Frame rate : 46.875 FPS (1024 SPF)
Compression mode : Lossy
Delay relative to video : 7 ms
Stream size : 131 MiB (8%)
Default : Yes
Forced : No

Complete name : Tokyo.Joshi.Pro.2021.08.15.8th.Tokyo.Princess.Cup.Final.ENGLISH.1080p.WEB.h264-LATE.mkv
Format : Matroska
Format version : Version 4
File size : 8.66 GiB
Duration : 2 h 26 min
Overall bit rate mode : Variable
Overall bit rate : 8 454 kb/s

8th Tokyo Princess Cup Final

Video
ID : 1
Format : AVC
Format/Info : Advanced Video
Duration : 2 h 26 min
Bit rate mode : Variable
Bit rate : 8 070 kb/s
Maximum bit rate : 18.0 Mb/s
Width : 1 920 pixels
Height : 1 080 pixels
Display aspect ratio : 16:9
Frame rate mode : Constant
Frame rate : 29.970 (29970/1000) FPS
Color space : YUV
Chroma subsampling : 4:2:0
Bit depth : 8 bits
Scan type : Progressive
Bits/(Pixel*Frame) : 0.130
Stream size : 8.26 GiB (95%)
Default : Yes
Forced : No
Color range : Limited
Color primaries : BT.709
Transfer characteristics : BT.709
Matrix coefficients : BT.709

8th Tokyo Princess Cup Final

Audio
ID : 2
Format : AAC LC
Format/Info : Advanced Audio
Codec ID : A_AAC-2
Duration : 2 h 26 min
Bit rate : 384 kb/s
Channel(s) : 2 channels
Channel layout : L R
Sampling rate : 48.0 kHz
Frame rate : 46.875 FPS (1024 SPF)
Compression mode : Lossy
Delay relative to video : 7 ms
Stream size : 400 MiB (5%)
Default : Yes
Forced : No

Complete name : Tokyo.Joshi.Pro.2021.08.15.8th.Tokyo.Princess.Cup.Final.ENGLISH.720p.WEB.h264-LATE.mkv
Format : Matroska
Format version : Version 4
File size : 3.73 GiB
Duration : 2 h 26 min
Overall bit rate mode : Variable
Overall bit rate : 3 638 kb/s

8th Tokyo Princess Cup Final

Video
ID : 1
Format : AVC
Format/Info : Advanced Video
Codec ID : V_MPEG4/ISO/AVC
Duration : 2 h 26 min
Bit rate mode : Variable
Bit rate : 3 446 kb/s
Maximum bit rate : 8 000 kb/s
Width : 1 280 pixels
Height : 720 pixels
Display aspect ratio : 16:9
Frame rate mode : Constant
Frame rate : 29.970 (29970/1000) FPS
Color space : YUV
Chroma subsampling : 4:2:0
Bit depth : 8 bits
Scan type : Progressive
Bits/(Pixel*Frame) : 0.125
Stream size : 3.53 GiB (95%)
Default : Yes
Forced : No
Color range : Limited
Color primaries : BT.709
Transfer characteristics : BT.709
Matrix coefficients : BT.709

8th Tokyo Princess Cup Final

Audio
ID : 2
Format : AAC LC
Codec ID : A_AAC-2
Duration : 2 h 26 min
Bit rate : 192 kb/s
Channel(s) : 2 channels
Channel layout : L R
Sampling rate : 48.0 kHz
Frame rate : 46.875 FPS (1024 SPF)
Compression mode : Lossy
Delay relative to video : 7 ms
Stream size : 198 MiB (5%)
Default : Yes
Forced : No

8th Tokyo Princess Cup Final

 

 

Complete name : Tokyo.Joshi.Pro.2021.08.15.8th.Tokyo.Princess.Cup.Final.ENGLISH.WEB.h264-LATE.mkv
Format : Matroska
Format version : Version 4
File size : 1.67 GiB
Duration : 2 h 26 min
Overall bit rate mode : Variable
Overall bit rate : 1 628 kb/s
Video
ID : 1
Format : AVC
Format/Info : Advanced Video
Duration : 2 h 26 min
Bit rate mode : Variable
Bit rate : 1 500 kb/s
Maximum bit rate : 4 000 kb/s
Width : 960 pixels
Height : 540 pixels
Display aspect ratio : 16:9
Frame rate mode : Constant
Frame rate : 29.970 (29970/1000) FPS
Color space : YUV
Chroma subsampling : 4:2:0
Bit depth : 8 bits
Scan type : Progressive
Bits/(Pixel*Frame) : 0.097
Stream size : 1.54 GiB (92%)
Default : Yes
Forced : No
Color range : Limited
Color primaries : BT.709
Transfer characteristics : BT.709
Matrix coefficients : BT.709

8th Tokyo Princess Cup Final

Audio
ID : 2
Format : AAC LC
Codec ID : A_AAC-2
Duration : 2 h 26 min
Bit rate : 125 kb/s
Channel(s) : 2 channels
Channel layout : L R
Sampling rate : 48.0 kHz
Frame rate : 46.875 FPS (1024 SPF)
Compression mode : Lossy
Delay relative to video : 7 ms
Stream size : 131 MiB (8%)
Default : Yes
Forced : No

Complete name : Tokyo.Joshi.Pro.2021.08.15.8th.Tokyo.Princess.Cup.Final.ENGLISH.1080p.WEB.h264-LATE.mkv
Format : Matroska
Format version : Version 4
File size : 8.66 GiB
Duration : 2 h 26 min
Overall bit rate mode : Variable
Overall bit rate : 8 454 kb/s

8th Tokyo Princess Cup Final

Video
ID : 1
Format : AVC
Format/Info : Advanced Video
Duration : 2 h 26 min
Bit rate mode : Variable
Bit rate : 8 070 kb/s
Maximum bit rate : 18.0 Mb/s
Width : 1 920 pixels
Height : 1 080 pixels
Display aspect ratio : 16:9
Frame rate mode : Constant
Frame rate : 29.970 (29970/1000) FPS
Color space : YUV
Chroma subsampling : 4:2:0
Bit depth : 8 bits
Scan type : Progressive
Bits/(Pixel*Frame) : 0.130
Stream size : 8.26 GiB (95%)
Default : Yes
Forced : No
Color range : Limited
Color primaries : BT.709
Transfer characteristics : BT.709
Matrix coefficients : BT.709

8th Tokyo Princess Cup Final

Audio
ID : 2
Format : AAC LC
Format/Info : Advanced Audio
Codec ID : A_AAC-2
Duration : 2 h 26 min
Bit rate : 384 kb/s
Channel(s) : 2 channels
Channel layout : L R
Sampling rate : 48.0 kHz
Frame rate : 46.875 FPS (1024 SPF)
Compression mode : Lossy
Delay relative to video : 7 ms
Stream size : 400 MiB (5%)
Default : Yes
Forced : No

Complete name : Tokyo.Joshi.Pro.2021.08.15.8th.Tokyo.Princess.Cup.Final.ENGLISH.720p.WEB.h264-LATE.mkv
Format : Matroska
Format version : Version 4
File size : 3.73 GiB
Duration : 2 h 26 min
Overall bit rate mode : Variable
Overall bit rate : 3 638 kb/s

8th Tokyo Princess Cup Final

Video
ID : 1
Format : AVC
Format/Info : Advanced Video
Codec ID : V_MPEG4/ISO/AVC
Duration : 2 h 26 min
Bit rate mode : Variable
Bit rate : 3 446 kb/s
Maximum bit rate : 8 000 kb/s
Width : 1 280 pixels
Height : 720 pixels
Display aspect ratio : 16:9
Frame rate mode : Constant
Frame rate : 29.970 (29970/1000) FPS
Color space : YUV
Chroma subsampling : 4:2:0
Bit depth : 8 bits
Scan type : Progressive
Bits/(Pixel*Frame) : 0.125
Stream size : 3.53 GiB (95%)
Default : Yes
Forced : No
Color range : Limited
Color primaries : BT.709
Transfer characteristics : BT.709
Matrix coefficients : BT.709

8th Tokyo Princess Cup Final

Audio
ID : 2
Format : AAC LC
Codec ID : A_AAC-2
Duration : 2 h 26 min
Bit rate : 192 kb/s
Channel(s) : 2 channels
Channel layout : L R
Sampling rate : 48.0 kHz
Frame rate : 46.875 FPS (1024 SPF)
Compression mode : Lossy
Delay relative to video : 7 ms
Stream size : 198 MiB (5%)
Default : Yes
Forced : No

8th Tokyo Princess Cup Final

 

 

Complete name : Tokyo.Joshi.Pro.2021.08.15.8th.Tokyo.Princess.Cup.Final.ENGLISH.WEB.h264-LATE.mkv
Format : Matroska
Format version : Version 4
File size : 1.67 GiB
Duration : 2 h 26 min
Overall bit rate mode : Variable
Overall bit rate : 1 628 kb/s
Video
ID : 1
Format : AVC
Format/Info : Advanced Video
Duration : 2 h 26 min
Bit rate mode : Variable
Bit rate : 1 500 kb/s
Maximum bit rate : 4 000 kb/s
Width : 960 pixels
Height : 540 pixels
Display aspect ratio : 16:9
Frame rate mode : Constant
Frame rate : 29.970 (29970/1000) FPS
Color space : YUV
Chroma subsampling : 4:2:0
Bit depth : 8 bits
Scan type : Progressive
Bits/(Pixel*Frame) : 0.097
Stream size : 1.54 GiB (92%)
Default : Yes
Forced : No
Color range : Limited
Color primaries : BT.709
Transfer characteristics : BT.709
Matrix coefficients : BT.709

8th Tokyo Princess Cup Final

Audio
ID : 2
Format : AAC LC
Codec ID : A_AAC-2
Duration : 2 h 26 min
Bit rate : 125 kb/s
Channel(s) : 2 channels
Channel layout : L R
Sampling rate : 48.0 kHz
Frame rate : 46.875 FPS (1024 SPF)
Compression mode : Lossy
Delay relative to video : 7 ms
Stream size : 131 MiB (8%)
Default : Yes
Forced : No

Complete name : Tokyo.Joshi.Pro.2021.08.15.8th.Tokyo.Princess.Cup.Final.ENGLISH.1080p.WEB.h264-LATE.mkv
Format : Matroska
Format version : Version 4
File size : 8.66 GiB
Duration : 2 h 26 min
Overall bit rate mode : Variable
Overall bit rate : 8 454 kb/s

8th Tokyo Princess Cup Final

Video
ID : 1
Format : AVC
Format/Info : Advanced Video
Duration : 2 h 26 min
Bit rate mode : Variable
Bit rate : 8 070 kb/s
Maximum bit rate : 18.0 Mb/s
Width : 1 920 pixels
Height : 1 080 pixels
Display aspect ratio : 16:9
Frame rate mode : Constant
Frame rate : 29.970 (29970/1000) FPS
Color space : YUV
Chroma subsampling : 4:2:0
Bit depth : 8 bits
Scan type : Progressive
Bits/(Pixel*Frame) : 0.130
Stream size : 8.26 GiB (95%)
Default : Yes
Forced : No
Color range : Limited
Color primaries : BT.709
Transfer characteristics : BT.709
Matrix coefficients : BT.709

8th Tokyo Princess Cup Final

Audio
ID : 2
Format : AAC LC
Format/Info : Advanced Audio
Codec ID : A_AAC-2
Duration : 2 h 26 min
Bit rate : 384 kb/s
Channel(s) : 2 channels
Channel layout : L R
Sampling rate : 48.0 kHz
Frame rate : 46.875 FPS (1024 SPF)
Compression mode : Lossy
Delay relative to video : 7 ms
Stream size : 400 MiB (5%)
Default : Yes
Forced : No

Complete name : Tokyo.Joshi.Pro.2021.08.15.8th.Tokyo.Princess.Cup.Final.ENGLISH.720p.WEB.h264-LATE.mkv
Format : Matroska
Format version : Version 4
File size : 3.73 GiB
Duration : 2 h 26 min
Overall bit rate mode : Variable
Overall bit rate : 3 638 kb/s

8th Tokyo Princess Cup Final

Video
ID : 1
Format : AVC
Format/Info : Advanced Video
Codec ID : V_MPEG4/ISO/AVC
Duration : 2 h 26 min
Bit rate mode : Variable
Bit rate : 3 446 kb/s
Maximum bit rate : 8 000 kb/s
Width : 1 280 pixels
Height : 720 pixels
Display aspect ratio : 16:9
Frame rate mode : Constant
Frame rate : 29.970 (29970/1000) FPS
Color space : YUV
Chroma subsampling : 4:2:0
Bit depth : 8 bits
Scan type : Progressive
Bits/(Pixel*Frame) : 0.125
Stream size : 3.53 GiB (95%)
Default : Yes
Forced : No
Color range : Limited
Color primaries : BT.709
Transfer characteristics : BT.709
Matrix coefficients : BT.709

8th Tokyo Princess Cup Final

Audio
ID : 2
Format : AAC LC
Codec ID : A_AAC-2
Duration : 2 h 26 min
Bit rate : 192 kb/s
Channel(s) : 2 channels
Channel layout : L R
Sampling rate : 48.0 kHz
Frame rate : 46.875 FPS (1024 SPF)
Compression mode : Lossy
Delay relative to video : 7 ms
Stream size : 198 MiB (5%)
Default : Yes
Forced : No

8th Tokyo Princess Cup Final

 

 

[collapse]

 

 

https://dx-tv.com/

You May Also Like

Leave a Reply

Your email address will not be published. Required fields are marked *

This site uses Akismet to reduce spam. Learn how your comment data is processed.