720p UFC Fight Night 181 Prelims Free Online

UFC Fight Night 181 Prelims 720p Free Online DX-TV

UFC Fight Night 181

 

 UFC Fight Night 181

 

720p UFC Fight Night 181 Prelims Free Online

One of the greatest fighters of all time competes for the last time inside the Octagon on Saturday .

at the UFC Apex in Las Vegas when former middleweight champion ,and pound-for-pound king Anderson Silva takes on Uriah Hall.

In just his second UFC fight, Silva captured the middleweight title from Rich Franklin in less than three minutes.

From there, “The Spider” went on a run for ages, winning 14 consecutive fights between 185 and 205 pounds.

Twelve of those victories came via stoppage. and set a then-UFC record of 11 straight title defenses.

After losing the middleweight strap and subsequent rematch to Chris Weidman,

the 45-year-old has dealt with a litany of injuries while going 1-4 with one no-contest in the process,

but Silva faces an ideal opponent who will have no problem standing with the famed striker.

UFC Fight Night 181

Complete name : UFC.Fight.Night.182.Prelims.720p.WEB.mp4
Format : MPEG-4
Format profile : Base Media
Codec ID : isom
File size : 4.43 GiB
Duration : 3 h 24 min
Overall bit rate mode : Variable
Overall bit rate : 3 101 kb/s
Writing application : Lavf58.12.100

UFC Fight Night 181

Video
ID : 2
Format : AVC
Duration : 3 h 24 min
Bit rate mode : Variable
Bit rate : 2 959 kb/s
Maximum bit rate : 3 159 kb/s
Width : 1 280 pixels
Height : 720 pixels
Display aspect ratio : 16:9
Frame rate mode : Variable
Frame rate : 30.000 FPS
Standard : NTSC
Color space : YUV
Chroma subsampling : 4:2:0
Bit depth : 8 bits
Scan type : Progressive
Bits/(Pixel*Frame) : 0.107
Stream size : 4.23 GiB (95%)
Color range : Limited
Color primaries : BT.709
Transfer characteristics : BT.709
Matrix coefficients : BT.709
Codec configuration box : avcC

UFC Fight Night 181

Audio
ID : 3
Format : AAC LC
Format/Info : Advanced Audio
Codec ID : mp4a-40-2
Duration : 3 h 24 min
Bit rate mode : Constant
Bit rate : 132 kb/s
Channel(s) : 2 channels
Channel layout : L R
Sampling rate : 48.0 kHz
Frame rate : 46.875 FPS (1024 SPF)
Compression mode : Lossy
Stream size : 193 MiB (4%)
Default : Yes
Alternate group : 1

 

 

 

720p UFC Fight Night 181 Prelims Free Online

 

 

Watch online

 

 

 

Server 1

 

 

 

 

UFC Fight Night 181

 

 

 

 

Server-2

 

 

 

watch now

 

 

 

 

Uploaded By Site DX-TV.com

 

 

 

 

Download Free Links with normal and high Speed [ more 14 hosts ]  

 

[su_expand more_text=”Show Hosts Info” less_text=”Close all Info” height=”30″ text_color=”#000000″ link_color=”#e25f8b” link_style=”button” more_icon=”icon: arrow-down” less_icon=”icon: arrow-up”]

 Fight Night 181

 

hexupload.net – clicknupload.co – www.multiup.org – uptobox.com – anonfiles.com – userscloud.com –

dropapk.to alfafile.net – ddownload.com – rockfile.co – 1fichier.com – filedown.org – katfile.com – filerio.in

 

 

[/su_expand]

 

 

http://shrt10.com/qvKWCjbq
http://shrt10.com/cF1Dvut
http://shrt10.com/aO3Cwm
http://shrt10.com/l4x1g
http://shrt10.com/xjrql
http://shrt10.com/Hs5CjBi

 

 

 

 

Download Links with premium High Speed   

 

 

 

 

dropapk.to

 

 

 

nitroflare.com

 

 

 

rapidgator.net

 

 

 

uploaded.net

 

 

 

uploadgig.com

 

 

 

 

 

dx-tv.com

 

urlfree.net

You May Also Like

Leave a Reply

Your email address will not be published. Required fields are marked *

This site uses Akismet to reduce spam. Learn how your comment data is processed.