Watch Glory 51 HDTV VERUM /720p

Watch Glory 51 HDTV VERUM /720p

 

 

 

 

 

wwe

 

 

 

 

 

 

 

Complete name : Glory.51.HDTV.x264-VERUM.mkv
Format : Matroska
File size : 1.30 GiB
Duration : 2h 17mn
Overall bit rate : 1 361 Kbps
Encoded date : UTC 2010-02-22 21:41:29

Video
ID : 1
Format : AVC
Format/Info : Advanced Video Codec
Codec ID : V_MPEG4/ISO/AVC
Duration : 2h 17mn
Width : 720 pixels
Height : 404 pixels
Display aspect ratio : 16:9
Frame rate : 50.000 fps
Color space : YUV
Chroma subsampling : 4:2:0
Bit depth : 8 bits

Audio
ID : 2
Format : AAC
Format/Info : Advanced Audio Codec
Format profile : LC
Codec ID : A_AAC
Duration : 2h 17mn
Channel(s) : 2 channels
Channel positions : Front: L R
Sampling rate : 48.0 KHz
Compression mode : Lossy
Language : English

 

 

 

 

 

Complete name : glory.51.720p.hdtv.x264-verum.mkv
Format : Matroska
File size : 3.34 GiB
Duration : 2h 17mn
Overall bit rate : 3 487 Kbps
Movie name : Glory 51
Encoded date : UTC 2010-02-22 21:41:29

Video
ID : 1
Format : AVC
Format/Info : Advanced Video Codec
Duration : 2h 17mn
Bit rate : 3 034 Kbps
Width : 1 280 pixels
Height : 720 pixels
Display aspect ratio : 16:9
Frame rate : 50.000 fps
Color space : YUV
Chroma subsampling : 4:2:0
Bit depth : 8 bits
Scan type : Progressive
Bits/(Pixel*Frame) : 0.066
Stream size : 2.91 GiB (87%)

Audio
ID : 2
Format version : Version 1
Format profile : Layer 2
Mode extension : Intensity Stereo + MS Stereo
Codec ID : A_MPEG/L2
Codec ID/Hint : MP2
Duration : 2h 17mn
Bit rate mode : Constant
Bit rate : 384 Kbps
Channel(s) : 2 channels
Sampling rate : 48.0 KHz
Compression mode : Lossy
Stream size : 377 MiB (11%)
Language : English

 

 

 

 

 

 

 

 

 

 

 

Watch Glory 51 HDTV VERUM /720p

 

 

 

 

Watch online

 

 

Waiting finish converting video

 

 

Server 1

 

 

 

 

 

 

 

 

 

 

 

 

 

 

 

 

 

 

 

Server 2

 

 

 

 

 

 

 

 

 


 

 

 

 

 

 

 

 

Uploaded By Site DX-TV.com

 

 

 

open rar file to see this password

 

 

 

 

The password is : DX-TV.com

 

 

 

 

400p+720p

 

 

 

 

 

Uploaded.net + rapidgator.net

 

 

 

 

 

 

http://shrt10.com/sh6Y

 

 

http://shrt10.com/mVPGD

 

 

http://shrt10.com/pZr9

 

 

 

http://shrt10.com/kRl0S

 

 

 

 

 

Watch Glory 51 HDTV VERUM /720p

WE need Staff/ Uploader/ Capper best quality For DX-TV
For More INFO Send PM for Admin on Email : [email protected]

X