Watch Glory 51 Super Fight Series WEB /720p

Watch Glory 51 Super Fight Series WEB /720p

 

 

 

s

 

 

 

wwe

 

 

 

 

 

 

 

Complete name : Glory.51.Super.Fight.Series.WEB-DL.mp4
Format : MPEG-4
Format profile : Base Media
Codec ID : isom
File size : 1.27 GiB
Duration : 1h 59mn
Overall bit rate : 1 529 Kbps
Writing application : Lavf56.40.101

Video
ID : 1
Format : AVC
Format/Info : Advanced Video Codec
Codec ID : avc1
Codec ID/Info : Advanced Video Coding
Duration : 1h 59mn
Bit rate mode : Variable
Bit rate : 1 442 Kbps
Width : 960 pixels
Height : 540 pixels
Display aspect ratio : 16:9
Frame rate mode : Constant
Frame rate : 29.970 fps
Color space : YUV
Chroma subsampling : 4:2:0
Bit depth : 8 bits
Scan type : Progressive
Bits/(Pixel*Frame) : 0.093
Stream size : 1.20 GiB (94%)

Audio
ID : 2
Format : AAC
Format/Info : Advanced Audio Codec
Format profile : LC
Codec ID : 40
Duration : 1h 59mn
Bit rate mode : Variable
Bit rate : 77.6 Kbps
Maximum bit rate : 94.4 Kbps
Channel(s) : 2 channels
Channel positions : Front: L R
Sampling rate : 44.1 KHz
Compression mode : Lossy
Stream size : 66.2 MiB (5%)

 

 

 

 

 

 

 

[EVENT]: Glory.51.Super.Fight.Series.720p.WEB-mp4
[SIZE]: 3.68 GB
[SOURCE]: Fight Pass
[CONTAINER]: mp4
[RESOLUTION]: 1280 x 720 @ 29.970 FPS
[VIDEO]: H264 @ 4275 Kbps
[AUDIO]: AAC @ 126 kbps
[Length]: 01:59:23
[Language]: English
 

 

 

 

 

Watch Glory 51 Super Fight Series WEB /720p

 

 

 

 

Watch online

 

 

Waiting finish converting video

 

 

Server 1

 

 

 

 

 

 

 

 

 

 

 

 

 

 

 

 

 

Server 2

 

 

 

 

 

 


 

 

 

 

 

Uploaded By Site DX-TV.com

 

 

 

open rar file to see this password

 

 

 

 

The password is : DX-TV.com

 

 

 

 

400p+720p

 

 

 

 

 

Uploaded.net + rapidgator.net

 

 

 

 

 

 

http://shrt10.com/EJ0OlE4q

 

 

http://shrt10.com/2XABxKIA

 

 

http://shrt10.com/HrGp1l

 

 

http://shrt10.com/1lc1K

 

 

 

 

 

 

Watch Glory 51 Super Fight Series WEB /720p