Watch The Ultimate Fighter S26 Finale Early Prelims 720p

Watch The Ultimate Fighter S26 Finale Early Prelims 720p

 

 

 

 

 

 

wwe

 

 

 

 

 

 

 

Complete name : The.Ultimate.Fighter.S26.Finale.Early.Prelims.720p.WEB-DL.mp4
Format : MPEG-4
Format profile : Base Media
Codec ID : isom
File size : 690 MiB
Duration : 22mn 5s
Overall bit rate : 4 368 Kbps
Writing application : Lavf56.40.101

Video
ID : 1
Format : AVC
Format/Info : Advanced Video Codec
Format settings, ReFrames : 3 frames
Codec ID : avc1
Codec ID/Info : Advanced Video Coding
Duration : 22mn 5s
Bit rate mode : Variable
Bit rate : 4 234 Kbps
Width : 1 280 pixels
Height : 720 pixels
Display aspect ratio : 16:9
Frame rate mode : Variable
Frame rate : 29.769 fps
Original frame rate : 29.970 fps
Minimum frame rate : 0.112 fps
Maximum frame rate : 29.970 fps
Color space : YUV
Chroma subsampling : 4:2:0
Bit depth : 8 bits
Scan type : Progressive
Bits/(Pixel*Frame) : 0.154
Stream size : 669 MiB (97%)

Audio
ID : 2
Format : AAC
Format/Info : Advanced Audio Codec
Format profile : LC
Codec ID : 40
Duration : 22mn 5s
Bit rate mode : Constant
Bit rate : 125 Kbps
Channel(s) : 2 channels
Channel positions : Front: L R
Sampling rate : 44.1 KHz
Compression mode : Lossy
Stream size : 19.7 MiB (3%)
 

 

 

 

 

 

 

 

 

 

 

 

Watch The Ultimate Fighter S26 Finale Early Prelims 720p

 

 

 

 

Watch online

 

 

Waiting finish converting video

 

 

Server 1

 

 

 

 

 

 

 

 

 

 

 

 

 

 

 

 

 

 

 

 

Server 2

 

 

 

 

 

 

 

 


 

 

 

 

 

 

Srver 3

 

 

 

 

 

 

 

 

 

 


 

 

 

 

 

 

Uploaded By Site DX-TV.com

 

 

 

open rar file to see this password

 

 

 

 

The password is : DX-TV.com

 

 

 

 

720p

 

 

 

Uploaded.net

 

 

 

 

 

http://shrt10.com/ccBeD1

 

 

 

 

 

 

 

 

 

 

rapidgator.net

 

 

 

 

 

 

 

http://shrt10.com/Cfjo

 

 

 

 

 

 

 

Watch The Ultimate Fighter S26 Finale Early Prelims 720p