24 07 2020 WWE Smackdown 720p Free HDTV Star

Watch 24 07 2020 WWE Smackdown 720p Free HDTV Star DX-TV

 

Smackdown 720p Free
Smackdown 720p Free
 

24 07 2020 WWE Smackdown 720p Free HDTV Star

 

 

 

Complete name : WWE.Smackdown.2020.07.24.720p.HDTV.x264-Star.mkv
Format : Matroska
Format version : Version 4
File size : 3.92 GiB
Duration : 1 h 27 min
Overall bit rate : 6 387 kb/s
Writing library : Lavf58.29.100
Detection Type : Per level 1

24 07 2020 WWE Smackdown 720p Free HDTV Star

Video
ID : 1
Format : AVC
Codec ID : V_MPEG4/ISO/AVC
Duration : 1 h 27 min
Bit rate : 6 000 kb/s
Width : 1 280 pixels
Height : 720 pixels
Display aspect ratio : 16:9
Frame rate mode : Constant
Frame rate : 59.940 (60000/1001) FPS
Color space : YUV
Chroma sub sampling : 4:2:0
Bit depth : 8 bits
Scan type : Progressive
Bits/(Pixel*Frame) : 0.109
Stream size : 3.56 GiB (91%)
Forced : No
Color range : Limited
Color primaries : BT.709
Transfer characteristics : BT.709
Matrix coefficients : BT.709

WWE Smackdown 720p Free HDTV Star

Audio
ID : 2
Format : AC-3
Format/Info : Audio Coding 3
Commercial name : Dolby Digital
Codec ID : A_AC3
Duration : 1 h 27 min
Bit rate mode : Constant
Bit rate : 448 kb/s
Channel(s) : 6 channels
Channel layout : L R C LFE Ls Rs
Sampling rate : 48.0 kHz
Frame rate : 31.250 FPS
Compression mode : Lossy
Delay relative to video : -5 ms
Stream size : 281 MiB (7%)
Title : Surround
Service kind : Complete Main
Default : Yes
Forced : No

WWE Smackdown 720p Free HDTV Star

Nikki Cross def. Alexa Bliss

 

Bayley played puppet master for another showdown, this time pitting Alexa Bliss and Nikki Cross against each other for a SmackDown Women’s Championship opportunity.

Cross came in nursing cracked ribs from Bayley’s use of Banks’ Boss Time rings during their championship clash. Bliss targeted the ribs of her friend throughout the match,

but Cross showed grit and battled back time and again. As the referee checked on the hurt Superstar after she missed a crossbody

off the top rope, Cross capitalized by surprising Bliss with a roll-up to clinch the win. Now,

Cross gets a chance to redeem herself after losing to Bayley at The Horror Show at WWE Extreme Rules,

while questions start to swirl about the future of her partnership with Bliss.

 

24 07 2020 WWE Smackdown 720p Free HDTV Star

 

 

 

Watch online

 

 

Server 1

 

 

 

 

watch now

 

 

 

 

Server 2

 

 

 

Smackdown 720p Free

 

 

 

Server-3

 

 

 

Smackdown 720p Free

 

 

 

Uploaded By Site DX-TV.com

 

 

 

Download with premium account Links 

 

 

Keep2Share

 

 

nitroflare.com

 

 

rapidgator.net

 

 

uploadgig.com

 

 

 

dx-tv.com

 

urlfree.net

Leave a Reply

Your email address will not be published. Required fields are marked *

This site uses Akismet to reduce spam. Learn how your comment data is processed.